<?xml version="1.0" standalone="no"?>
<!DOCTYPE svg PUBLIC "-//W3C//DTD SVG 1.1//EN" "http://www.w3.org/Graphics/SVG/1.1/DTD/svg11.dtd" >
<svg>
<metadata>
Created by FontForge 20120731 at Fri Jul 11 14:19:35 2025
 By fw_worker
(c) 2016 The Monotype Corporation. All Rights Reserved.
</metadata>
<defs>
<font id="Arial-Black" horiz-adv-x="1366" >
  <font-face 
    font-family="Arial Black"
    font-weight="900"
    font-stretch="normal"
    units-per-em="2048"
    panose-1="2 11 10 4 2 1 2 2 2 4"
    ascent="1638"
    descent="-410"
    x-height="1062"
    cap-height="1466"
    bbox="-397 -628 3456 2219"
    underline-thickness="123"
    underline-position="-195"
    unicode-range="U+0020-FB02"
  />
<missing-glyph horiz-adv-x="1536" 
d="M0 0v1280h1024v-1280h-1024zM32 32h960v1216h-960v-1216z" />
    <glyph glyph-name=".notdef" horiz-adv-x="1536" 
d="M0 0v1280h1024v-1280h-1024zM32 32h960v1216h-960v-1216z" />
    <glyph glyph-name="glyph1" horiz-adv-x="0" 
 />
    <glyph glyph-name="glyph2" horiz-adv-x="683" 
 />
    <glyph glyph-name="space" unicode=" " horiz-adv-x="683" 
 />
    <glyph glyph-name="exclam" unicode="!" horiz-adv-x="682" 
d="M124 1466h435v-334l-84 -671h-269l-82 671v334zM139 359h406v-359h-406v359z" />
    <glyph glyph-name="quotedbl" unicode="&#x22;" horiz-adv-x="1024" 
d="M48 1466h406v-242l-64 -297h-276l-66 297v242zM569 1466h406v-242l-64 -297h-276l-66 297v242z" />
    <glyph glyph-name="numbersign" unicode="#" horiz-adv-x="1352" 
d="M253 604l52 253h-245v276h300l71 358h285l-73 -358h219l72 358h284l-70 -358h137v-276h-193l-51 -253h244v-276h-299l-71 -352h-285l70 352h-218l-72 -352h-283l73 352h-140v276h193zM537 604h219l52 253h-218z" />
    <glyph glyph-name="dollar" unicode="$" 
d="M1250 1121l-372 -59q-28 71 -50.5 98.5t-74.5 55.5v-289q304 -81 406 -171q135 -121 135 -307q0 -109 -48.5 -200t-124 -152t-160.5 -88.5t-208 -32.5v-189h-146v189q-147 13 -238.5 47.5t-158 95.5t-102.5 131.5t-54 170.5l404 47q18 -99 48.5 -143t100.5 -78v353
q-202 56 -286.5 97t-146.5 131.5t-62 220.5q0 178 124.5 297.5t370.5 132.5v99h146v-99q224 -14 342.5 -106t154.5 -252zM607 1221q-64 -21 -89 -52t-25 -73q0 -44 25.5 -76.5t88.5 -54.5v256zM753 237q85 19 124.5 62.5t39.5 97.5q0 47 -33.5 86.5t-130.5 73.5v-320z" />
    <glyph glyph-name="percent" unicode="%" horiz-adv-x="2048" 
d="M1344 1491h211l-847 -1566h-209zM99 1106q0 102 44.5 194t136 141.5t216.5 49.5q184 0 290 -105t106 -280q0 -176 -106 -281t-290 -105q-125 0 -216.5 49.5t-136 141.5t-44.5 195zM380 1104q0 -124 40 -180q26 -37 76 -37t75 37q40 56 40 180q0 123 -40 180
q-25 36 -75 36t-76 -36q-40 -56 -40 -180zM1156 313q0 103 44 194.5t136 141.5t216 50q185 0 291 -105.5t106 -280.5t-106 -280.5t-291 -105.5q-124 0 -216 50t-136 141.5t-44 194.5zM1437 311q0 -124 40 -180q25 -36 75 -36t76 36q40 56 40 180t-40 181q-26 36 -76 36
t-75 -37q-40 -56 -40 -180z" />
    <glyph glyph-name="ampersand" unicode="&#x26;" horiz-adv-x="1821" 
d="M1307 713l318 -71q-25 -88 -48 -141t-65 -125l153 -105q28 -18 72 -43l-219 -252q-60 32 -124.5 74t-115.5 72q-106 -70 -212 -102q-147 -44 -334 -44q-293 0 -436 122t-143 296q0 125 84 236.5t275 188.5q-80 97 -110 168.5t-30 145.5q0 156 119 257t361 101
q247 0 363 -96t116 -230q0 -75 -35.5 -144t-85.5 -112t-179 -128q107 -107 223 -199q31 62 53 131zM839 970q79 43 122 93.5t43 95.5q0 47 -36 79.5t-99 32.5q-62 0 -101 -36t-39 -85q0 -62 110 -180zM694 614q-84 -59 -111.5 -101t-27.5 -89q0 -73 63 -130t164 -57
q109 0 245 85q-130 100 -333 292z" />
    <glyph glyph-name="quotesingle" unicode="'" horiz-adv-x="569" 
d="M85 1466h406v-242l-64 -297h-276l-66 297v242z" />
    <glyph glyph-name="parenleft" unicode="(" horiz-adv-x="797" 
d="M463 1491h254q-131 -290 -189 -536q-49 -209 -49 -446q0 -457 238 -940h-254q-194 275 -272.5 497.5t-78.5 466.5q0 253 82.5 481t268.5 477z" />
    <glyph glyph-name="parenright" unicode=")" horiz-adv-x="797" 
d="M334 1491h-254q131 -290 189 -536q49 -209 49 -446q0 -457 -238 -940h254q194 275 272.5 497.5t78.5 466.5q0 253 -82.5 481t-268.5 477z" />
    <glyph glyph-name="asterisk" unicode="*" horiz-adv-x="1139" 
d="M453 1491h221l-18 -151q-6 -55 -25 -125q38 19 50 26q42 23 64 33l139 66l69 -211l-154 -32q-42 -8 -125 -11q56 -44 89 -80l104 -113l-180 -135l-74 135q-16 29 -52 113q-39 -92 -52 -113l-75 -135l-185 135l112 113q47 47 92 80q-46 4 -121 18l-155 25l72 211l139 -63
q22 -10 109 -62q-19 84 -24 125z" />
    <glyph glyph-name="plus" unicode="+" horiz-adv-x="1352" 
d="M127 894h383v385h323v-385h385v-324h-385v-383h-323v383h-383v324z" />
    <glyph glyph-name="comma" unicode="," horiz-adv-x="682" 
d="M124 404h435v-335q0 -185 -77 -292t-263 -189l-95 178q116 54 159.5 107.5t48.5 126.5h-208v404z" />
    <glyph glyph-name="hyphen" unicode="-" horiz-adv-x="682" 
d="M45 692h592v-315h-592v315z" />
    <glyph glyph-name="hyphen" unicode="&#xad;" horiz-adv-x="682" 
d="M45 692h592v-315h-592v315z" />
    <glyph glyph-name="period" unicode="." horiz-adv-x="682" 
d="M124 408h435v-408h-435v408z" />
    <glyph glyph-name="slash" unicode="/" horiz-adv-x="569" 
d="M367 1491h208l-368 -1515h-206z" />
    <glyph glyph-name="zero" unicode="0" 
d="M84 739q0 418 150.5 585t458.5 167q148 0 243 -36.5t155 -95t94.5 -123t55.5 -150.5q41 -164 41 -342q0 -399 -135 -584t-465 -185q-185 0 -299 59t-187 173q-53 81 -82.5 221.5t-29.5 310.5zM488 738q0 -280 49.5 -382.5t143.5 -102.5q62 0 107.5 43.5t67 137.5
t21.5 293q0 292 -49.5 392.5t-148.5 100.5q-101 0 -146 -102.5t-45 -379.5z" />
    <glyph glyph-name="one" unicode="1" 
d="M1007 1491v-1491h-412v977q-100 -76 -193.5 -123t-234.5 -90v334q208 67 323 161t180 232h337z" />
    <glyph glyph-name="two" unicode="2" 
d="M1276 0h-1222q21 181 127.5 340.5t399.5 376.5q179 133 229 202t50 131q0 67 -49.5 114.5t-124.5 47.5q-78 0 -127.5 -49t-66.5 -173l-408 33q24 172 88 268.5t180.5 148t322.5 51.5q215 0 334.5 -49t188 -150.5t68.5 -227.5q0 -134 -78.5 -256t-285.5 -268
q-123 -85 -164.5 -119t-97.5 -89h636v-332z" />
    <glyph glyph-name="three" unicode="3" 
d="M479 1042l-385 69q48 184 184.5 282t386.5 98q287 0 415 -107t128 -269q0 -95 -52 -172t-157 -135q85 -21 130 -49q73 -45 113.5 -118.5t40.5 -175.5q0 -128 -67 -245.5t-193 -181t-331 -63.5q-200 0 -315.5 47t-190 137.5t-114.5 227.5l407 54q24 -123 74.5 -170.5
t128.5 -47.5q82 0 136.5 60t54.5 160q0 102 -52.5 158t-142.5 56q-48 0 -132 -24l21 291q34 -5 53 -5q80 0 133.5 51t53.5 121q0 67 -40 107t-110 40q-72 0 -117 -43.5t-61 -152.5z" />
    <glyph glyph-name="four" unicode="4" 
d="M784 274h-742v335l742 882h355v-901h184v-316h-184v-274h-355v274zM784 590v461l-392 -461h392z" />
    <glyph glyph-name="five" unicode="5" 
d="M249 1466h967v-325h-655l-35 -220q68 32 134.5 48t131.5 16q220 0 357 -133t137 -335q0 -142 -70.5 -273t-200 -200t-331.5 -69q-145 0 -248.5 27.5t-176 82t-117.5 123.5t-75 172l412 45q15 -99 70 -150.5t131 -51.5q85 0 140.5 64.5t55.5 192.5q0 131 -56 192t-149 61
q-59 0 -114 -29q-41 -21 -90 -76l-347 50z" />
    <glyph glyph-name="six" unicode="6" 
d="M1263 1136l-405 -50q-16 85 -53.5 120t-92.5 35q-99 0 -154 -100q-40 -72 -59 -308q73 74 150 109.5t178 35.5q196 0 331.5 -140t135.5 -355q0 -145 -68.5 -265t-190 -181.5t-304.5 -61.5q-220 0 -353 75t-212.5 239.5t-79.5 435.5q0 397 167 581.5t463 184.5
q175 0 276.5 -40.5t168.5 -118.5t102 -196zM513 483q0 -119 60 -186.5t147 -67.5q80 0 134 61t54 182q0 124 -56 189t-139 65q-85 0 -142.5 -63t-57.5 -180z" />
    <glyph glyph-name="seven" unicode="7" 
d="M91 1466h1189v-275q-155 -140 -259 -303q-126 -198 -199 -441q-58 -189 -78 -447h-406q48 359 151 602t326 520h-724v344z" />
    <glyph glyph-name="eight" unicode="8" 
d="M329 788q-96 51 -140 114q-60 86 -60 198q0 184 173 301q135 90 357 90q294 0 434.5 -112t140.5 -282q0 -99 -56 -185q-42 -64 -132 -124q119 -57 177.5 -151t58.5 -208q0 -110 -50.5 -205.5t-124 -147.5t-183 -76.5t-233.5 -24.5q-233 0 -356 55t-187 162t-64 239
q0 129 60 218.5t185 138.5zM512 1076q0 -76 47.5 -122.5t126.5 -46.5q70 0 115 46t45 119q0 76 -47 123.5t-120 47.5q-74 0 -120.5 -46.5t-46.5 -120.5zM490 445q0 -97 59 -158.5t135 -61.5q73 0 131 62.5t58 158.5q0 97 -58.5 159t-135.5 62q-76 0 -132.5 -60t-56.5 -162z
" />
    <glyph glyph-name="nine" unicode="9" 
d="M102 329l405 51q16 -85 54 -120t93 -35q98 0 153 99q40 73 60 309q-73 -75 -150 -110t-178 -35q-197 0 -332.5 140t-135.5 354q0 146 69 266t190 181.5t304 61.5q220 0 353 -75.5t212.5 -240t79.5 -434.5q0 -397 -167 -581.5t-463 -184.5q-175 0 -276 40.5t-168 118.5
t-103 195zM852 983q0 119 -60 186.5t-146 67.5q-81 0 -134.5 -61t-53.5 -183q0 -123 55.5 -188t138.5 -65q86 0 143 63t57 180z" />
    <glyph glyph-name="colon" unicode=":" horiz-adv-x="682" 
d="M124 1062h435v-408h-435v408zM124 408h435v-408h-435v408z" />
    <glyph glyph-name="semicolon" unicode=";" horiz-adv-x="682" 
d="M124 1062h435v-408h-435v408zM124 404h435v-335q0 -185 -77 -292t-263 -189l-95 178q116 54 159.5 107.5t48.5 126.5h-208v404z" />
    <glyph glyph-name="semicolon" unicode="&#x37e;" horiz-adv-x="682" 
d="M124 1062h435v-408h-435v408zM124 404h435v-335q0 -185 -77 -292t-263 -189l-95 178q116 54 159.5 107.5t48.5 126.5h-208v404z" />
    <glyph glyph-name="less" unicode="&#x3c;" horiz-adv-x="1352" 
d="M1244 112l-1137 473v296l1137 472v-355l-691 -266l691 -267v-353z" />
    <glyph glyph-name="equal" unicode="=" horiz-adv-x="1352" 
d="M126 1141h1092v-325h-1092v325zM126 649h1092v-324h-1092v324z" />
    <glyph glyph-name="greater" unicode="&#x3e;" horiz-adv-x="1352" 
d="M108 112l1137 473v296l-1137 472v-355l691 -266l-691 -267v-353z" />
    <glyph glyph-name="question" unicode="?" horiz-adv-x="1251" 
d="M785 460h-380v38q0 97 22 157.5t65.5 110.5t195.5 176q81 66 81 121t-32.5 85.5t-98.5 30.5q-71 0 -117.5 -47t-59.5 -164l-388 48q20 214 155.5 344.5t415.5 130.5q218 0 352 -91q182 -123 182 -328q0 -85 -47 -164t-192 -193q-101 -80 -127.5 -128.5t-26.5 -126.5z
M392 359h407v-359h-407v359z" />
    <glyph glyph-name="at" unicode="@" horiz-adv-x="1516" 
d="M1156 1148l-125 -791q-4 -24 -4 -35q0 -18 10 -28t30 -10q46 0 104 41q86 60 141.5 173.5t55.5 274.5q0 264 -151.5 417t-406.5 153q-188 0 -342.5 -90t-238 -261t-83.5 -378q0 -322 181.5 -510.5t468.5 -188.5q140 0 269.5 47t248.5 140h205q-82 -97 -156 -152
q-109 -81 -253 -132t-310 -51q-231 0 -415 107t-287.5 305t-103.5 436q0 250 107.5 454.5t285.5 313.5t422 109q315 0 512.5 -200t197.5 -517q0 -188 -77 -344t-226 -247q-115 -70 -216 -70q-60 0 -98 28t-56 89q-67 -65 -122 -91.5t-119 -26.5q-133 0 -229 111t-96 318
q0 245 123 443t305 198q71 0 125.5 -33t109.5 -115l18 113h195zM490 493q0 -119 51 -185q38 -49 97 -49q64 0 116 54.5t91 217.5t39 293q0 98 -42 148t-100 50q-66 0 -116 -50q-67 -67 -101.5 -212.5t-34.5 -266.5z" />
    <glyph glyph-name="A" unicode="A" horiz-adv-x="1593" 
d="M1052 242h-516l-71 -242h-463l551 1466h494l551 -1466h-474zM957 559l-162 527l-161 -527h323z" />
    <glyph glyph-name="B" unicode="B" horiz-adv-x="1593" 
d="M151 1466h848q212 0 325.5 -105t113.5 -260q0 -130 -81 -223q-54 -62 -158 -98q158 -38 232.5 -130.5t74.5 -232.5q0 -114 -53 -205t-145 -144q-57 -33 -172 -48q-153 -20 -203 -20h-782v1466zM608 891h197q106 0 147.5 36.5t41.5 105.5q0 64 -41.5 100t-144.5 36h-200
v-278zM608 315h231q117 0 165 41.5t48 111.5q0 65 -47.5 104.5t-166.5 39.5h-230v-297z" />
    <glyph glyph-name="C" unicode="C" horiz-adv-x="1593" 
d="M1126 599l397 -120q-40 -167 -126 -279t-213.5 -169t-324.5 -57q-239 0 -390.5 69.5t-261.5 244.5t-110 448q0 364 193.5 559.5t547.5 195.5q277 0 435.5 -112t235.5 -344l-400 -89q-21 67 -44 98q-38 52 -93 80t-123 28q-154 0 -236 -124q-62 -92 -62 -289
q0 -244 74 -334.5t208 -90.5q130 0 196.5 73t96.5 212z" />
    <glyph glyph-name="D" unicode="D" horiz-adv-x="1593" 
d="M156 1466h673q199 0 321.5 -54t202.5 -155t116 -235t36 -284q0 -235 -53.5 -364.5t-148.5 -217t-204 -116.5q-149 -40 -270 -40h-673v1466zM609 1134v-801h111q142 0 202 31.5t94 110t34 254.5q0 233 -76 319t-252 86h-113z" />
    <glyph glyph-name="E" unicode="E" horiz-adv-x="1479" 
d="M149 1466h1214v-313h-760v-233h705v-299h-705v-289h782v-332h-1236v1466z" />
    <glyph glyph-name="F" unicode="F" 
d="M152 1466h1120v-315h-665v-256h568v-296h-568v-599h-455v1466z" />
    <glyph glyph-name="G" unicode="G" horiz-adv-x="1706" 
d="M887 531v305h700v-625q-201 -137 -355.5 -186.5t-366.5 -49.5q-261 0 -425.5 89t-255 265t-90.5 404q0 240 99 417.5t290 269.5q149 71 401 71q243 0 363.5 -44t200 -136.5t119.5 -234.5l-437 -78q-27 83 -91.5 127t-164.5 44q-149 0 -237.5 -103.5t-88.5 -327.5
q0 -238 89.5 -340t249.5 -102q76 0 145 22t158 75v138h-303z" />
    <glyph glyph-name="H" unicode="H" horiz-adv-x="1706" 
d="M152 1466h453v-513h495v513h455v-1466h-455v593h-495v-593h-453v1466z" />
    <glyph glyph-name="I" unicode="I" horiz-adv-x="797" 
d="M168 1466h454v-1466h-454v1466z" />
    <glyph glyph-name="J" unicode="J" 
d="M760 1466h454v-797q0 -251 -44.5 -382t-179 -222t-344.5 -91q-222 0 -344 60t-188.5 175.5t-78.5 285.5l433 59q1 -97 17 -144t54 -76q26 -19 74 -19q76 0 111.5 56.5t35.5 190.5v904z" />
    <glyph glyph-name="K" unicode="K" horiz-adv-x="1706" 
d="M152 1466h453v-554l475 554h602l-534 -553l558 -913h-558l-309 603l-234 -245v-358h-453v1466z" />
    <glyph glyph-name="L" unicode="L" 
d="M150 1466h453v-1105h707v-361h-1160v1466z" />
    <glyph glyph-name="M" unicode="M" horiz-adv-x="1933" 
d="M145 1466h596l230 -892l229 892h594v-1466h-370v1118l-287 -1118h-335l-286 1118v-1118h-371v1466z" />
    <glyph glyph-name="N" unicode="N" horiz-adv-x="1706" 
d="M153 1466h423l552 -811v811h427v-1466h-427l-549 805v-805h-426v1466z" />
    <glyph glyph-name="O" unicode="O" horiz-adv-x="1706" 
d="M93 732q0 359 200 559t557 200q366 0 564 -196.5t198 -550.5q0 -257 -86.5 -421.5t-250 -256t-407.5 -91.5q-248 0 -410.5 79t-263.5 250t-101 428zM546 730q0 -222 82.5 -319t224.5 -97q146 0 226 95t80 341q0 207 -83.5 302.5t-226.5 95.5q-137 0 -220 -97t-83 -321z
" />
    <glyph glyph-name="P" unicode="P" horiz-adv-x="1479" 
d="M148 1466h753q246 0 368.5 -117t122.5 -333q0 -222 -133.5 -347t-407.5 -125h-248v-544h-455v1466zM603 841h111q131 0 184 45.5t53 116.5q0 69 -46 117t-173 48h-129v-327z" />
    <glyph glyph-name="Q" unicode="Q" horiz-adv-x="1706" 
d="M1452 214q85 -59 111 -74q39 -22 105 -51l-126 -254q-95 46 -188 109.5t-130 95.5q-150 -65 -376 -65q-334 0 -527 174q-228 206 -228 579q0 362 199.5 562.5t557.5 200.5q365 0 563.5 -196t198.5 -561q0 -325 -160 -520zM1105 446q54 97 54 290q0 222 -82.5 317
t-227.5 95q-135 0 -219 -97t-84 -303q0 -240 82 -337t225 -97q46 0 87 9q-57 55 -180 104l71 163q60 -11 93.5 -27t130.5 -84q23 -16 50 -33z" />
    <glyph glyph-name="R" unicode="R" horiz-adv-x="1593" 
d="M156 0v1466h755q210 0 321 -36t179 -133.5t68 -237.5q0 -122 -52 -210.5t-143 -143.5q-58 -35 -159 -58q81 -27 118 -54q25 -18 72.5 -77t63.5 -91l219 -425h-512l-242 448q-46 87 -82 113q-49 34 -111 34h-40v-595h-455zM611 872h191q31 0 120 20q45 9 73.5 46t28.5 85
q0 71 -45 109t-169 38h-199v-298z" />
    <glyph glyph-name="S" unicode="S" horiz-adv-x="1479" 
d="M71 485l431 27q14 -105 57 -160q70 -89 200 -89q97 0 149.5 45.5t52.5 105.5q0 57 -50 102t-232 85q-298 67 -425 178q-128 111 -128 283q0 113 65.5 213.5t197 158t360.5 57.5q281 0 428.5 -104.5t175.5 -332.5l-427 -25q-17 99 -71.5 144t-150.5 45q-79 0 -119 -33.5
t-40 -81.5q0 -35 33 -63q32 -29 152 -54q297 -64 425.5 -129.5t187 -162.5t58.5 -217q0 -141 -78 -260t-218 -180.5t-353 -61.5q-374 0 -518 144t-163 366z" />
    <glyph glyph-name="T" unicode="T" horiz-adv-x="1479" 
d="M47 1466h1377v-362h-462v-1104h-453v1104h-462v362z" />
    <glyph glyph-name="U" unicode="U" horiz-adv-x="1706" 
d="M1104 1466h452v-874q0 -130 -40.5 -245.5t-127 -202t-181.5 -121.5q-132 -49 -317 -49q-107 0 -233.5 15t-211.5 59.5t-155.5 126.5t-96.5 169q-42 140 -42 248v874h452v-895q0 -120 66.5 -187.5t184.5 -67.5q117 0 183.5 66.5t66.5 188.5v895z" />
    <glyph glyph-name="V" unicode="V" horiz-adv-x="1593" 
d="M5 1466h474l330 -1055l325 1055h460l-544 -1466h-491z" />
    <glyph glyph-name="W" unicode="W" horiz-adv-x="2048" 
d="M-1 1466h430l155 -819l226 819h429l227 -819l155 819h428l-323 -1466h-444l-257 923l-256 -923h-444z" />
    <glyph glyph-name="X" unicode="X" horiz-adv-x="1593" 
d="M49 1466h499l260 -451l252 451h494l-456 -710l499 -756h-509l-289 471l-290 -471h-506l506 764z" />
    <glyph glyph-name="Y" unicode="Y" horiz-adv-x="1593" 
d="M2 1466h503l296 -495l296 495h500l-570 -852v-614h-454v614z" />
    <glyph glyph-name="Z" unicode="Z" horiz-adv-x="1479" 
d="M113 1466h1282v-293l-822 -858h852v-315h-1391v304l813 849h-734v313z" />
    <glyph glyph-name="bracketleft" unicode="[" horiz-adv-x="797" 
d="M135 1466h615v-316h-243v-1241h243v-316h-615v1873z" />
    <glyph glyph-name="backslash" unicode="\" horiz-adv-x="569" 
d="M202 1491h-208l368 -1515h206z" />
    <glyph glyph-name="bracketright" unicode="]" horiz-adv-x="797" 
d="M662 1466h-615v-316h243v-1241h-243v-316h615v1873z" />
    <glyph glyph-name="asciicircum" unicode="^" horiz-adv-x="1352" 
d="M533 1491h279l408 -813h-353l-193 491l-195 -491h-354z" />
    <glyph glyph-name="underscore" unicode="_" horiz-adv-x="1024" 
d="M-12 -154h1048v-102h-1048v102z" />
    <glyph glyph-name="grave" unicode="`" horiz-adv-x="682" 
d="M1 1491h347l164 -298h-192z" />
    <glyph glyph-name="a" unicode="a" 
d="M494 718l-389 41q22 102 63.5 160.5t119.5 101.5q56 31 154 48t212 17q183 0 294 -20.5t185 -85.5q52 -45 82 -127.5t30 -157.5v-469q0 -75 9.5 -117.5t41.5 -108.5h-382q-23 41 -30 62.5t-14 67.5q-80 -77 -159 -110q-108 -44 -251 -44q-190 0 -288.5 88t-98.5 217
q0 121 71 199t262 116q229 46 297 64.5t144 48.5q0 75 -31 105t-109 30q-100 0 -150 -32q-39 -25 -63 -94zM847 504q-84 -30 -175 -53q-124 -33 -157 -65q-34 -33 -34 -75q0 -48 33.5 -78.5t98.5 -30.5q68 0 126.5 33t83 80.5t24.5 123.5v65z" />
    <glyph glyph-name="b" unicode="b" 
d="M125 1466h411v-508q61 64 138.5 96t171.5 32q194 0 321 -139.5t127 -400.5q0 -174 -58 -306.5t-160.5 -198t-227.5 -65.5q-107 0 -196 46q-67 36 -146 135v-157h-381v1466zM533 534q0 -137 51.5 -198.5t130.5 -61.5q73 0 122.5 60.5t49.5 203.5q0 126 -48.5 185
t-117.5 59q-83 0 -135.5 -61.5t-52.5 -186.5z" />
    <glyph glyph-name="c" unicode="c" 
d="M915 415l387 -44q-32 -121 -105 -209.5t-186.5 -137.5t-288.5 -49q-169 0 -281.5 31.5t-193.5 102t-127 165.5t-46 252q0 164 56 273q41 80 112 143.5t146 94.5q119 49 305 49q260 0 396.5 -93t191.5 -272l-383 -51q-18 68 -65.5 102.5t-127.5 34.5q-101 0 -163.5 -72.5
t-62.5 -219.5q0 -131 62 -199t158 -68q80 0 134.5 41t81.5 126z" />
    <glyph glyph-name="d" unicode="d" 
d="M1241 1466v-1466h-381v157q-80 -100 -146 -135q-88 -46 -196 -46q-217 0 -331.5 165t-114.5 401q0 264 126.5 404t321.5 140q95 0 172.5 -32t137.5 -96v508h411zM833 534q0 125 -53 186.5t-134 61.5q-71 0 -119 -59t-48 -198q0 -130 49.5 -190.5t122.5 -60.5q78 0 130 61
t52 199z" />
    <glyph glyph-name="e" unicode="e" 
d="M1302 430h-816q11 -98 53 -146q59 -69 154 -69q60 0 114 30q33 19 71 67l401 -37q-92 -160 -222 -229.5t-373 -69.5q-211 0 -332 59.5t-200.5 189t-79.5 304.5q0 249 159.5 403t440.5 154q228 0 360 -69t201 -200t69 -341v-46zM888 625q-12 118 -63.5 169t-135.5 51
q-97 0 -155 -77q-37 -48 -47 -143h401z" />
    <glyph glyph-name="f" unicode="f" horiz-adv-x="797" 
d="M576 1062h194v-298h-194v-764h-408v764h-152v298h152v48q0 65 14 143t52.5 127.5t108 80t203.5 30.5q107 0 311 -25l-45 -246q-73 12 -118 12q-55 0 -79 -18.5t-34 -58.5q-5 -22 -5 -93z" />
    <glyph glyph-name="g" unicode="g" 
d="M862 1062h381v-1003l1 -47q0 -100 -42.5 -190.5t-113 -146.5t-179 -81t-248.5 -25q-320 0 -439.5 96t-119.5 257q0 20 2 54l395 -45q15 -55 46 -76q45 -31 113 -31q88 0 131.5 47t43.5 164v161q-60 -71 -120 -103q-94 -50 -203 -50q-213 0 -344 186q-93 132 -93 349
q0 248 120 378t314 130q124 0 204.5 -42t150.5 -139v157zM479 547q0 -115 49 -170.5t129 -55.5q76 0 127.5 57.5t51.5 173.5t-54 177.5t-132 61.5t-124.5 -56.5t-46.5 -187.5z" />
    <glyph glyph-name="h" unicode="h" 
d="M123 1466h407v-540q83 86 165 123t194 37q166 0 261.5 -101t95.5 -310v-675h-409v584q0 100 -37 141.5t-104 41.5q-74 0 -120 -56t-46 -201v-510h-407v1466z" />
    <glyph glyph-name="i" unicode="i" horiz-adv-x="682" 
d="M138 1466h407v-277h-407v277zM138 1062h407v-1062h-407v1062z" />
    <glyph glyph-name="j" unicode="j" horiz-adv-x="682" 
d="M139 1466h408v-280h-408v280zM139 1062h408v-1030q0 -197 -28.5 -279t-105.5 -133t-220 -51q-118 0 -293 35l61 296q49 -10 72 -10q52 0 79 35.5t27 141.5v995z" />
    <glyph glyph-name="k" unicode="k" 
d="M123 1466h416v-756l304 352h501l-381 -372l403 -690h-459l-215 426l-153 -150v-276h-416v1466z" />
    <glyph glyph-name="l" unicode="l" horiz-adv-x="682" 
d="M137 1466h408v-1466h-408v1466z" />
    <glyph glyph-name="m" unicode="m" horiz-adv-x="2048" 
d="M126 1062h380v-155q82 97 165.5 138t201.5 41q127 0 201 -45t121 -134q96 104 175 141.5t195 37.5q171 0 267 -101.5t96 -317.5v-667h-408v605q0 72 -28 107q-41 55 -102 55q-72 0 -116 -52t-44 -167v-548h-408v585q0 70 -8 95q-13 40 -45 64.5t-75 24.5q-70 0 -115 -53
t-45 -174v-542h-408v1062z" />
    <glyph glyph-name="n" unicode="n" 
d="M123 1062h379v-173q85 106 172 151.5t212 45.5q169 0 264.5 -100.5t95.5 -310.5v-675h-409v584q0 100 -37 141.5t-104 41.5q-74 0 -120 -56t-46 -201v-510h-407v1062z" />
    <glyph glyph-name="o" unicode="o" 
d="M73 528q0 243 164 400.5t443 157.5q319 0 482 -185q131 -149 131 -367q0 -245 -162.5 -401.5t-449.5 -156.5q-256 0 -414 130q-194 161 -194 422zM481 529q0 -142 57.5 -210t144.5 -68q88 0 144.5 67t56.5 215q0 138 -57 205.5t-141 67.5q-89 0 -147 -68.5t-58 -208.5z
" />
    <glyph glyph-name="p" unicode="p" 
d="M125 -404v1466h381v-157q79 99 145 134q89 47 197 47q213 0 329.5 -163t116.5 -403q0 -265 -127 -404.5t-321 -139.5q-94 0 -171.5 32t-138.5 95v-507h-411zM533 528q0 -126 53 -187t134 -61q71 0 119 58.5t48 198.5q0 129 -50 189.5t-122 60.5q-78 0 -130 -61t-52 -198z
" />
    <glyph glyph-name="q" unicode="q" 
d="M1241 -404h-411v507q-60 -63 -137.5 -95t-172.5 -32q-194 0 -321 139.5t-127 399.5q0 174 58 307t161 198.5t227 65.5q107 0 197 -47q66 -35 145 -134v157h381v-1466zM833 528q0 137 -51.5 198t-130.5 61q-73 0 -122.5 -60.5t-49.5 -202.5q0 -127 48.5 -185.5
t118.5 -58.5q82 0 134.5 61t52.5 187z" />
    <glyph glyph-name="r" unicode="r" horiz-adv-x="909" 
d="M127 1062h381v-174q55 113 113.5 155.5t144.5 42.5q90 0 197 -56l-126 -290q-72 30 -114 30q-80 0 -124 -66q-63 -93 -63 -348v-356h-409v1062z" />
    <glyph glyph-name="s" unicode="s" horiz-adv-x="1251" 
d="M51 294l404 38q25 -72 70 -103t120 -31q82 0 127 35q35 26 35 65q0 44 -46 68q-33 17 -175 42q-212 37 -294.5 68.5t-139 106.5t-56.5 171q0 105 61 181t168 113.5t287 37.5q190 0 280.5 -29t151 -90t100.5 -165l-386 -38q-15 51 -50 75q-48 32 -116 32
q-69 0 -100.5 -24.5t-31.5 -59.5q0 -39 40 -59t174 -36q203 -23 302 -64t151.5 -117t52.5 -167q0 -92 -55.5 -179t-175 -138.5t-325.5 -51.5q-291 0 -414.5 83t-158.5 236z" />
    <glyph glyph-name="t" unicode="t" horiz-adv-x="909" 
d="M614 1466v-404h224v-297h-224v-377q0 -68 13 -90q20 -34 70 -34q45 0 126 26l30 -281q-151 -33 -282 -33q-152 0 -224 39t-106.5 118.5t-34.5 257.5v374h-150v297h150v195z" />
    <glyph glyph-name="u" unicode="u" 
d="M1242 0h-380v172q-85 -106 -171.5 -151t-212.5 -45q-168 0 -263.5 100.5t-95.5 309.5v676h409v-584q0 -100 37 -142t104 -42q73 0 119.5 56t46.5 201v511h407v-1062z" />
    <glyph glyph-name="v" unicode="v" horiz-adv-x="1251" 
d="M2 1062h424l206 -673l213 673h411l-451 -1062h-361z" />
    <glyph glyph-name="w" unicode="w" horiz-adv-x="1933" 
d="M3 1062h394l171 -669l216 669h367l224 -669l171 669h391l-391 -1062h-362l-215 639l-208 -639h-364z" />
    <glyph glyph-name="x" unicode="x" 
d="M31 1062h483l169 -296l196 296h449l-362 -506l388 -556h-475l-196 342l-231 -342h-441l386 556z" />
    <glyph glyph-name="y" unicode="y" horiz-adv-x="1251" 
d="M5 1062h430l219 -707l203 707h401l-421 -1135q-72 -194 -147 -262q-106 -96 -323 -96q-88 0 -272 24l-32 284q88 -28 196 -28q72 0 116.5 33t75.5 118z" />
    <glyph glyph-name="z" unicode="z" horiz-adv-x="1139" 
d="M77 1062h985v-238l-536 -546h569v-278h-1058v264l508 520h-468v278z" />
    <glyph glyph-name="braceleft" unicode="{" horiz-adv-x="797" 
d="M774 1491v-328h-45q-63 0 -94.5 -26.5t-44.5 -81.5q-7 -30 -8 -164.5t-28 -211.5q-20 -59 -57 -95q-28 -27 -92 -55q67 -31 99.5 -64.5t55.5 -102t23 -218.5q0 -135 14 -176t46.5 -58t130.5 -17v-324h-126q-195 0 -277 42.5t-117 124t-35 244.5q0 36 2 72q1 22 1 45
q0 116 -21 165t-60.5 71t-114.5 24v343q77 0 115.5 24t58.5 73.5t20 167.5v34q-1 23 -1 46q0 177 29.5 256t81.5 121q39 32 106 48q89 21 203 21h135z" />
    <glyph glyph-name="bar" unicode="|" horiz-adv-x="569" 
d="M160 1466h255v-1870h-255v1870z" />
    <glyph glyph-name="braceright" unicode="}" horiz-adv-x="797" 
d="M23 1491v-328h45q63 0 94.5 -26.5t44.5 -81.5q7 -30 8 -164.5t28 -211.5q20 -59 57 -95q28 -27 92 -55q-67 -31 -99.5 -64.5t-55.5 -102t-23 -218.5q0 -135 -14 -176t-46.5 -58t-130.5 -17v-324h126q195 0 277 42.5t117 124t35 244.5q0 36 -2 72q-1 22 -1 45
q0 116 21 165t60.5 71t114.5 24v343q-77 0 -115.5 24t-58.5 73.5t-20 167.5v34q1 23 1 46q0 177 -29.5 256t-81.5 121q-39 32 -106 48q-89 21 -203 21h-135z" />
    <glyph glyph-name="asciitilde" unicode="~" horiz-adv-x="1352" 
d="M1246 972v-326q-115 -92 -186 -123t-147 -31q-58 0 -116.5 17t-183 80t-196.5 63q-154 0 -318 -160v329q93 83 174 118t177 35q49 0 103 -15.5t158.5 -66.5t148.5 -64t83 -13q134 0 303 157z" />
    <glyph glyph-name="Adieresis" unicode="&#xc4;" horiz-adv-x="1593" 
d="M1052 242h-516l-71 -242h-463l551 1466h494l551 -1466h-474zM957 559l-162 527l-161 -527h323zM454 1809h260v-250h-260v250zM878 1809h263v-250h-263v250z" />
    <glyph glyph-name="Aring" unicode="&#xc5;" horiz-adv-x="1593" 
d="M587 1466q-32 56 -32 121q0 99 70.5 170t169.5 71q100 0 170.5 -70.5t70.5 -170.5q0 -65 -33 -121h44l551 -1466h-474l-77 242h-506l-76 -242h-463l551 1466h34zM692 1588q0 -44 30 -74t73 -30q42 0 72 30t30 73t-30 73t-72 30q-43 0 -73 -30t-30 -72zM945 577l-150 485
l-149 -485h299z" />
    <glyph glyph-name="Ccedilla" unicode="&#xc7;" horiz-adv-x="1593" 
d="M1126 599l397 -120q-40 -167 -126 -279t-213.5 -169t-324.5 -57q-239 0 -390.5 69.5t-261.5 244.5t-110 448q0 364 193.5 559.5t547.5 195.5q277 0 435.5 -112t235.5 -344l-400 -89q-21 67 -44 98q-38 52 -93 80t-123 28q-154 0 -236 -124q-62 -92 -62 -289
q0 -244 74 -334.5t208 -90.5q130 0 196.5 73t96.5 212zM572 -165l30 118q94 23 176 23q171 0 236 -58t65 -137q0 -48 -29.5 -99t-105.5 -82t-202 -31q-114 0 -268 26v123q104 -20 221 -20q86 0 116.5 23t30.5 60q0 29 -25 50t-78 21q-71 0 -167 -17z" />
    <glyph glyph-name="Eacute" unicode="&#xc9;" horiz-adv-x="1479" 
d="M149 1466h1214v-313h-760v-233h705v-299h-705v-289h782v-332h-1236v1466zM730 1854h350l-323 -299h-195z" />
    <glyph glyph-name="Ntilde" unicode="&#xd1;" horiz-adv-x="1706" 
d="M153 1466h423l552 -811v811h427v-1466h-427l-549 805v-805h-426v1466zM1055 1829h158q1 -26 1 -45q0 -111 -56 -172t-144 -61q-64 0 -194 53q-79 32 -109 32q-29 0 -45 -18t-17 -64h-156q-1 24 -1 42q0 107 59 170t140 63q35 0 66 -8t114.5 -43t121.5 -35q27 0 43.5 18.5
t18.5 67.5z" />
    <glyph glyph-name="Odieresis" unicode="&#xd6;" horiz-adv-x="1706" 
d="M93 732q0 359 200 559t557 200q366 0 564 -196.5t198 -550.5q0 -257 -86.5 -421.5t-250 -256t-407.5 -91.5q-248 0 -410.5 79t-263.5 250t-101 428zM546 730q0 -222 82.5 -319t224.5 -97q146 0 226 95t80 341q0 207 -83.5 302.5t-226.5 95.5q-137 0 -220 -97t-83 -321z
M510 1809h260v-250h-260v250zM934 1809h263v-250h-263v250z" />
    <glyph glyph-name="Udieresis" unicode="&#xdc;" horiz-adv-x="1706" 
d="M1104 1466h452v-874q0 -130 -40.5 -245.5t-127 -202t-181.5 -121.5q-132 -49 -317 -49q-107 0 -233.5 15t-211.5 59.5t-155.5 126.5t-96.5 169q-42 140 -42 248v874h452v-895q0 -120 66.5 -187.5t184.5 -67.5q117 0 183.5 66.5t66.5 188.5v895zM510 1809h260v-250h-260
v250zM934 1809h263v-250h-263v250z" />
    <glyph glyph-name="aacute" unicode="&#xe1;" 
d="M494 718l-389 41q22 102 63.5 160.5t119.5 101.5q56 31 154 48t212 17q183 0 294 -20.5t185 -85.5q52 -45 82 -127.5t30 -157.5v-469q0 -75 9.5 -117.5t41.5 -108.5h-382q-23 41 -30 62.5t-14 67.5q-80 -77 -159 -110q-108 -44 -251 -44q-190 0 -288.5 88t-98.5 217
q0 121 71 199t262 116q229 46 297 64.5t144 48.5q0 75 -31 105t-109 30q-100 0 -150 -32q-39 -25 -63 -94zM847 504q-84 -30 -175 -53q-124 -33 -157 -65q-34 -33 -34 -75q0 -48 33.5 -78.5t98.5 -30.5q68 0 126.5 33t83 80.5t24.5 123.5v65zM673 1491h350l-323 -299h-195z
" />
    <glyph glyph-name="agrave" unicode="&#xe0;" 
d="M494 718l-389 41q22 102 63.5 160.5t119.5 101.5q56 31 154 48t212 17q183 0 294 -20.5t185 -85.5q52 -45 82 -127.5t30 -157.5v-469q0 -75 9.5 -117.5t41.5 -108.5h-382q-23 41 -30 62.5t-14 67.5q-80 -77 -159 -110q-108 -44 -251 -44q-190 0 -288.5 88t-98.5 217
q0 121 71 199t262 116q229 46 297 64.5t144 48.5q0 75 -31 105t-109 30q-100 0 -150 -32q-39 -25 -63 -94zM847 504q-84 -30 -175 -53q-124 -33 -157 -65q-34 -33 -34 -75q0 -48 33.5 -78.5t98.5 -30.5q68 0 126.5 33t83 80.5t24.5 123.5v65zM343 1491h347l164 -298h-192z
" />
    <glyph glyph-name="acircumflex" unicode="&#xe2;" 
d="M494 718l-389 41q22 102 63.5 160.5t119.5 101.5q56 31 154 48t212 17q183 0 294 -20.5t185 -85.5q52 -45 82 -127.5t30 -157.5v-469q0 -75 9.5 -117.5t41.5 -108.5h-382q-23 41 -30 62.5t-14 67.5q-80 -77 -159 -110q-108 -44 -251 -44q-190 0 -288.5 88t-98.5 217
q0 121 71 199t262 116q229 46 297 64.5t144 48.5q0 75 -31 105t-109 30q-100 0 -150 -32q-39 -25 -63 -94zM847 504q-84 -30 -175 -53q-124 -33 -157 -65q-34 -33 -34 -75q0 -48 33.5 -78.5t98.5 -30.5q68 0 126.5 33t83 80.5t24.5 123.5v65zM543 1478h289l222 -286h-248
l-122 153l-122 -153h-248z" />
    <glyph glyph-name="adieresis" unicode="&#xe4;" 
d="M494 718l-389 41q22 102 63.5 160.5t119.5 101.5q56 31 154 48t212 17q183 0 294 -20.5t185 -85.5q52 -45 82 -127.5t30 -157.5v-469q0 -75 9.5 -117.5t41.5 -108.5h-382q-23 41 -30 62.5t-14 67.5q-80 -77 -159 -110q-108 -44 -251 -44q-190 0 -288.5 88t-98.5 217
q0 121 71 199t262 116q229 46 297 64.5t144 48.5q0 75 -31 105t-109 30q-100 0 -150 -32q-39 -25 -63 -94zM847 504q-84 -30 -175 -53q-124 -33 -157 -65q-34 -33 -34 -75q0 -48 33.5 -78.5t98.5 -30.5q68 0 126.5 33t83 80.5t24.5 123.5v65zM340 1446h260v-250h-260v250z
M764 1446h263v-250h-263v250z" />
    <glyph glyph-name="atilde" unicode="&#xe3;" 
d="M494 718l-389 41q22 102 63.5 160.5t119.5 101.5q56 31 154 48t212 17q183 0 294 -20.5t185 -85.5q52 -45 82 -127.5t30 -157.5v-469q0 -75 9.5 -117.5t41.5 -108.5h-382q-23 41 -30 62.5t-14 67.5q-80 -77 -159 -110q-108 -44 -251 -44q-190 0 -288.5 88t-98.5 217
q0 121 71 199t262 116q229 46 297 64.5t144 48.5q0 75 -31 105t-109 30q-100 0 -150 -32q-39 -25 -63 -94zM847 504q-84 -30 -175 -53q-124 -33 -157 -65q-34 -33 -34 -75q0 -48 33.5 -78.5t98.5 -30.5q68 0 126.5 33t83 80.5t24.5 123.5v65zM885 1466h158q1 -26 1 -45
q0 -111 -56 -172t-144 -61q-64 0 -194 53q-79 32 -109 32q-29 0 -45 -18t-17 -64h-156q-1 24 -1 42q0 107 59 170t140 63q35 0 66 -8t114.5 -43t121.5 -35q27 0 43.5 18.5t18.5 67.5z" />
    <glyph glyph-name="aring" unicode="&#xe5;" 
d="M494 718l-389 41q22 102 63.5 160.5t119.5 101.5q56 31 154 48t212 17q183 0 294 -20.5t185 -85.5q52 -45 82 -127.5t30 -157.5v-469q0 -75 9.5 -117.5t41.5 -108.5h-382q-23 41 -30 62.5t-14 67.5q-80 -77 -159 -110q-108 -44 -251 -44q-190 0 -288.5 88t-98.5 217
q0 121 71 199t262 116q229 46 297 64.5t144 48.5q0 75 -31 105t-109 30q-100 0 -150 -32q-39 -25 -63 -94zM847 504q-84 -30 -175 -53q-124 -33 -157 -65q-34 -33 -34 -75q0 -48 33.5 -78.5t98.5 -30.5q68 0 126.5 33t83 80.5t24.5 123.5v65zM923 1403q0 -100 -70.5 -170
t-169.5 -70q-100 0 -170.5 70t-70.5 170t70.5 170.5t170.5 70.5q99 0 169.5 -70.5t70.5 -170.5zM785 1404q0 43 -30 73t-73 30t-73 -30t-30 -73t30 -73t73 -30t73 30t30 73z" />
    <glyph glyph-name="ccedilla" unicode="&#xe7;" 
d="M915 415l387 -44q-32 -121 -105 -209.5t-186.5 -137.5t-288.5 -49q-169 0 -281.5 31.5t-193.5 102t-127 165.5t-46 252q0 164 56 273q41 80 112 143.5t146 94.5q119 49 305 49q260 0 396.5 -93t191.5 -272l-383 -51q-18 68 -65.5 102.5t-127.5 34.5q-101 0 -163.5 -72.5
t-62.5 -219.5q0 -131 62 -199t158 -68q80 0 134.5 41t81.5 126zM458 -165l30 118q94 23 176 23q171 0 236 -58t65 -137q0 -48 -29.5 -99t-105.5 -82t-202 -31q-114 0 -268 26v123q104 -20 221 -20q86 0 116.5 23t30.5 60q0 29 -25 50t-78 21q-71 0 -167 -17z" />
    <glyph glyph-name="eacute" unicode="&#xe9;" 
d="M1302 430h-816q11 -98 53 -146q59 -69 154 -69q60 0 114 30q33 19 71 67l401 -37q-92 -160 -222 -229.5t-373 -69.5q-211 0 -332 59.5t-200.5 189t-79.5 304.5q0 249 159.5 403t440.5 154q228 0 360 -69t201 -200t69 -341v-46zM888 625q-12 118 -63.5 169t-135.5 51
q-97 0 -155 -77q-37 -48 -47 -143h401zM673 1491h350l-323 -299h-195z" />
    <glyph glyph-name="egrave" unicode="&#xe8;" 
d="M1302 430h-816q11 -98 53 -146q59 -69 154 -69q60 0 114 30q33 19 71 67l401 -37q-92 -160 -222 -229.5t-373 -69.5q-211 0 -332 59.5t-200.5 189t-79.5 304.5q0 249 159.5 403t440.5 154q228 0 360 -69t201 -200t69 -341v-46zM888 625q-12 118 -63.5 169t-135.5 51
q-97 0 -155 -77q-37 -48 -47 -143h401zM343 1491h347l164 -298h-192z" />
    <glyph glyph-name="ecircumflex" unicode="&#xea;" 
d="M1302 430h-816q11 -98 53 -146q59 -69 154 -69q60 0 114 30q33 19 71 67l401 -37q-92 -160 -222 -229.5t-373 -69.5q-211 0 -332 59.5t-200.5 189t-79.5 304.5q0 249 159.5 403t440.5 154q228 0 360 -69t201 -200t69 -341v-46zM888 625q-12 118 -63.5 169t-135.5 51
q-97 0 -155 -77q-37 -48 -47 -143h401zM543 1478h289l222 -286h-248l-122 153l-122 -153h-248z" />
    <glyph glyph-name="edieresis" unicode="&#xeb;" 
d="M1302 430h-816q11 -98 53 -146q59 -69 154 -69q60 0 114 30q33 19 71 67l401 -37q-92 -160 -222 -229.5t-373 -69.5q-211 0 -332 59.5t-200.5 189t-79.5 304.5q0 249 159.5 403t440.5 154q228 0 360 -69t201 -200t69 -341v-46zM888 625q-12 118 -63.5 169t-135.5 51
q-97 0 -155 -77q-37 -48 -47 -143h401zM340 1446h260v-250h-260v250zM764 1446h263v-250h-263v250z" />
    <glyph glyph-name="iacute" unicode="&#xed;" horiz-adv-x="682" 
d="M138 1062h407v-1062h-407v1062zM331 1491h350l-323 -299h-195z" />
    <glyph glyph-name="igrave" unicode="&#xec;" horiz-adv-x="682" 
d="M138 1062h407v-1062h-407v1062zM1 1491h347l164 -298h-192z" />
    <glyph glyph-name="icircumflex" unicode="&#xee;" horiz-adv-x="682" 
d="M138 1062h407v-1062h-407v1062zM201 1478h289l222 -286h-248l-122 153l-122 -153h-248z" />
    <glyph glyph-name="idieresis" unicode="&#xef;" horiz-adv-x="682" 
d="M138 1062h407v-1062h-407v1062zM-2 1446h260v-250h-260v250zM422 1446h263v-250h-263v250z" />
    <glyph glyph-name="ntilde" unicode="&#xf1;" 
d="M123 1062h379v-173q85 106 172 151.5t212 45.5q169 0 264.5 -100.5t95.5 -310.5v-675h-409v584q0 100 -37 141.5t-104 41.5q-74 0 -120 -56t-46 -201v-510h-407v1062zM885 1466h158q1 -26 1 -45q0 -111 -56 -172t-144 -61q-64 0 -194 53q-79 32 -109 32q-29 0 -45 -18
t-17 -64h-156q-1 24 -1 42q0 107 59 170t140 63q35 0 66 -8t114.5 -43t121.5 -35q27 0 43.5 18.5t18.5 67.5z" />
    <glyph glyph-name="oacute" unicode="&#xf3;" 
d="M73 528q0 243 164 400.5t443 157.5q319 0 482 -185q131 -149 131 -367q0 -245 -162.5 -401.5t-449.5 -156.5q-256 0 -414 130q-194 161 -194 422zM481 529q0 -142 57.5 -210t144.5 -68q88 0 144.5 67t56.5 215q0 138 -57 205.5t-141 67.5q-89 0 -147 -68.5t-58 -208.5z
M673 1491h350l-323 -299h-195z" />
    <glyph glyph-name="ograve" unicode="&#xf2;" 
d="M73 528q0 243 164 400.5t443 157.5q319 0 482 -185q131 -149 131 -367q0 -245 -162.5 -401.5t-449.5 -156.5q-256 0 -414 130q-194 161 -194 422zM481 529q0 -142 57.5 -210t144.5 -68q88 0 144.5 67t56.5 215q0 138 -57 205.5t-141 67.5q-89 0 -147 -68.5t-58 -208.5z
M343 1491h347l164 -298h-192z" />
    <glyph glyph-name="ocircumflex" unicode="&#xf4;" 
d="M73 528q0 243 164 400.5t443 157.5q319 0 482 -185q131 -149 131 -367q0 -245 -162.5 -401.5t-449.5 -156.5q-256 0 -414 130q-194 161 -194 422zM481 529q0 -142 57.5 -210t144.5 -68q88 0 144.5 67t56.5 215q0 138 -57 205.5t-141 67.5q-89 0 -147 -68.5t-58 -208.5z
M543 1478h289l222 -286h-248l-122 153l-122 -153h-248z" />
    <glyph glyph-name="odieresis" unicode="&#xf6;" 
d="M73 528q0 243 164 400.5t443 157.5q319 0 482 -185q131 -149 131 -367q0 -245 -162.5 -401.5t-449.5 -156.5q-256 0 -414 130q-194 161 -194 422zM481 529q0 -142 57.5 -210t144.5 -68q88 0 144.5 67t56.5 215q0 138 -57 205.5t-141 67.5q-89 0 -147 -68.5t-58 -208.5z
M340 1446h260v-250h-260v250zM764 1446h263v-250h-263v250z" />
    <glyph glyph-name="otilde" unicode="&#xf5;" 
d="M73 528q0 243 164 400.5t443 157.5q319 0 482 -185q131 -149 131 -367q0 -245 -162.5 -401.5t-449.5 -156.5q-256 0 -414 130q-194 161 -194 422zM481 529q0 -142 57.5 -210t144.5 -68q88 0 144.5 67t56.5 215q0 138 -57 205.5t-141 67.5q-89 0 -147 -68.5t-58 -208.5z
M885 1466h158q1 -26 1 -45q0 -111 -56 -172t-144 -61q-64 0 -194 53q-79 32 -109 32q-29 0 -45 -18t-17 -64h-156q-1 24 -1 42q0 107 59 170t140 63q35 0 66 -8t114.5 -43t121.5 -35q27 0 43.5 18.5t18.5 67.5z" />
    <glyph glyph-name="uacute" unicode="&#xfa;" 
d="M1242 0h-380v172q-85 -106 -171.5 -151t-212.5 -45q-168 0 -263.5 100.5t-95.5 309.5v676h409v-584q0 -100 37 -142t104 -42q73 0 119.5 56t46.5 201v511h407v-1062zM673 1491h350l-323 -299h-195z" />
    <glyph glyph-name="ugrave" unicode="&#xf9;" 
d="M1242 0h-380v172q-85 -106 -171.5 -151t-212.5 -45q-168 0 -263.5 100.5t-95.5 309.5v676h409v-584q0 -100 37 -142t104 -42q73 0 119.5 56t46.5 201v511h407v-1062zM343 1491h347l164 -298h-192z" />
    <glyph glyph-name="ucircumflex" unicode="&#xfb;" 
d="M1242 0h-380v172q-85 -106 -171.5 -151t-212.5 -45q-168 0 -263.5 100.5t-95.5 309.5v676h409v-584q0 -100 37 -142t104 -42q73 0 119.5 56t46.5 201v511h407v-1062zM543 1478h289l222 -286h-248l-122 153l-122 -153h-248z" />
    <glyph glyph-name="udieresis" unicode="&#xfc;" 
d="M1242 0h-380v172q-85 -106 -171.5 -151t-212.5 -45q-168 0 -263.5 100.5t-95.5 309.5v676h409v-584q0 -100 37 -142t104 -42q73 0 119.5 56t46.5 201v511h407v-1062zM340 1446h260v-250h-260v250zM764 1446h263v-250h-263v250z" />
    <glyph glyph-name="dagger" unicode="&#x2020;" 
d="M511 1466h352v-380h374v-296h-374v-1197h-352v1197h-370v296h370v380z" />
    <glyph glyph-name="degree" unicode="&#xb0;" horiz-adv-x="819" 
d="M692 1206q0 -118 -84 -202t-203 -84q-118 0 -202 84t-84 202q0 119 84 202.5t202 83.5q119 0 203 -83.5t84 -202.5zM506 1207q0 42 -29.5 72t-71.5 30t-72 -30t-30 -72t30 -71.5t72 -29.5t71.5 29.5t29.5 71.5z" />
    <glyph glyph-name="cent" unicode="&#xa2;" 
d="M932 412l370 -41q-21 -99 -60 -158q-71 -108 -197.5 -176.5t-300.5 -68.5q-45 0 -179 8l-129 -366l-131 46l122 352q-162 51 -257.5 184.5t-95.5 336.5q0 254 160.5 409.5t419.5 155.5q39 0 149 -8l129 360l129 -47l-120 -337q101 -32 166.5 -81.5t109.5 -115.5
q32 -49 65 -143l-364 -49q-14 47 -27 67t-44 48l-194 -555q36 -5 57 -5q77 0 137 47.5t85 136.5zM529 299l182 529q-13 1 -20 1q-88 0 -159 -71.5t-71 -251.5q0 -76 14.5 -118.5t53.5 -88.5z" />
    <glyph glyph-name="sterling" unicode="&#xa3;" 
d="M676 845h303v-239h-268q-5 -85 -31 -153q-21 -52 -70 -108q56 13 96 13q51 0 133 -20q112 -26 179 -26q55 0 95.5 9.5t106.5 39.5l136 -298q-99 -50 -174 -69t-161 -19q-94 0 -215 33q-159 44 -197 51t-82 7q-129 0 -285 -91l-129 284q210 151 210 302q0 8 -2 45h-208
v239h149q-38 132 -43 153q-6 32 -6 79q0 125 66.5 224.5t175 144.5t292.5 45q172 0 272.5 -38.5t170 -128t95.5 -216.5l-382 -60q-29 107 -66.5 142t-85.5 35q-58 0 -94 -38t-36 -108q0 -37 7 -71.5t48 -162.5z" />
    <glyph glyph-name="section" unicode="&#xa7;" 
d="M1211 1159l-382 -44q-19 57 -52.5 81t-89.5 24q-67 0 -98 -26t-31 -66q0 -34 28 -60q50 -46 234 -113q263 -96 366 -188q102 -93 102 -243q0 -88 -39 -160.5t-126 -147.5q53 -58 78.5 -117t25.5 -135q0 -104 -53.5 -195t-168.5 -145.5t-309 -54.5q-124 0 -220.5 21
t-159 58t-103 85.5t-60.5 93t-36 120.5l376 39q36 -73 82 -107t113 -34q69 0 103.5 32t34.5 79q0 40 -41 81q-57 56 -305.5 154.5t-331.5 195.5t-83 206q0 86 44.5 158.5t152.5 148.5q-51 56 -74 110t-23 121q0 86 40.5 157.5t105.5 114.5t132 62q91 26 234 26
q191 0 285.5 -34.5t154.5 -106.5t94 -191zM446 764q-52 -69 -52 -111q0 -26 17 -45q28 -32 138 -82l385 -173q45 68 45 109q0 33 -27 59q-39 38 -231 117.5t-275 125.5z" />
    <glyph glyph-name="bullet" unicode="&#x2022;" horiz-adv-x="1024" 
d="M844 721q0 -137 -97 -234.5t-235 -97.5t-235 97.5t-97 234.5q0 138 97 235t235 97t235 -97t97 -235z" />
    <glyph glyph-name="paragraph" unicode="&#xb6;" horiz-adv-x="1741" 
d="M1617 1466v-317h-131v-1556h-297v1556h-167v-1556h-297v1022h-69q-202 0 -304 49.5t-159.5 153t-57.5 232.5q0 201 128 308.5t382 107.5h972z" />
    <glyph glyph-name="germandbls" unicode="&#xdf;" 
d="M119 0v1017q0 129 52 241.5t171.5 172.5t317.5 60q242 0 349.5 -86.5t107.5 -211.5q0 -82 -58.5 -199t-58.5 -153q0 -27 13 -51.5t57 -64.5q130 -119 186 -233q38 -80 38 -178q0 -147 -99 -242.5t-265 -95.5q-122 0 -212 42q-67 32 -132 108l233 138q35 -44 69 -44
q35 0 58 23t23 57q0 30 -27.5 71t-179.5 188q-78 76 -109 135q-20 38 -20 86q0 59 59 175.5t59 175.5q0 45 -30.5 74.5t-80.5 29.5q-57 0 -94.5 -46t-37.5 -164v-1025h-389z" />
    <glyph glyph-name="registered" unicode="&#xae;" horiz-adv-x="1638" 
d="M1585 728q0 -205 -102.5 -382t-279.5 -279t-382 -102q-204 0 -381 102t-279.5 279t-102.5 382q0 204 102.5 381.5t279.5 279.5t381 102q205 0 382 -102t279.5 -279.5t102.5 -381.5zM1437 728q0 255 -180.5 435.5t-435.5 180.5t-435.5 -180.5t-180.5 -435.5t180.5 -435.5
t435.5 -180.5t435.5 180.5t180.5 435.5zM475 1136h365q155 0 224.5 -62.5t69.5 -167.5q0 -82 -53 -142t-167 -87q47 -18 69 -38q31 -28 65 -83q2 -4 132 -236h-240q-117 233 -157 278.5t-80 45.5q-9 0 -25 -3v-321h-203v816zM678 790h88q88 0 124 28.5t36 73.5t-34.5 73.5
t-117.5 28.5h-96v-204z" />
    <glyph glyph-name="copyright" unicode="&#xa9;" horiz-adv-x="1638" 
d="M1585 728q0 -205 -102.5 -382t-279.5 -279t-382 -102q-204 0 -381 102t-279.5 279t-102.5 382q0 204 102.5 381.5t279.5 279.5t381 102q205 0 382 -102t279.5 -279.5t102.5 -381.5zM1437 728q0 255 -180.5 435.5t-435.5 180.5t-435.5 -180.5t-180.5 -435.5t180.5 -435.5
t435.5 -180.5t435.5 180.5t180.5 435.5zM999 634l206 -49q-38 -121 -105 -186q-105 -101 -274 -101q-184 0 -300 118.5t-116 313.5q0 185 119 305.5t298 120.5q145 0 244 -77t125 -199l-197 -30q-18 81 -65.5 120.5t-115.5 39.5q-78 0 -131 -66.5t-53 -208.5q0 -143 36 -204
q53 -88 150 -88q61 0 109.5 45t69.5 146z" />
    <glyph glyph-name="trademark" unicode="&#x2122;" horiz-adv-x="1946" 
d="M36 1466h801v-194h-285v-621h-235v621h-281v194zM930 1466h357l113 -445l119 445h346v-815h-221v576l-153 -576h-185l-151 576v-576h-225v815z" />
    <glyph glyph-name="acute" unicode="&#xb4;" horiz-adv-x="682" 
d="M331 1491h350l-323 -299h-195z" />
    <glyph glyph-name="dieresis" unicode="&#xa8;" horiz-adv-x="682" 
d="M-2 1446h260v-250h-260v250zM422 1446h263v-250h-263v250z" />
    <glyph glyph-name="notequal" unicode="&#x2260;" horiz-adv-x="1352" 
d="M98 1141h595l202 515h276l-201 -515h275v-324h-399l-67 -168h466v-324h-593l-203 -517h-279l203 517h-275v324h403l65 168h-468v324z" />
    <glyph glyph-name="AE" unicode="&#xc6;" horiz-adv-x="2048" 
d="M556 1466h1400v-313h-618v-233h562v-299h-562v-289h637v-332h-1063v263h-435l-97 -263h-456zM811 1169l-211 -572h312v572h-101z" />
    <glyph glyph-name="Oslash" unicode="&#xd8;" horiz-adv-x="1706" 
d="M1346 1352l174 164l151 -161l-173 -164q53 -80 83 -201.5t30 -254.5q0 -257 -92.5 -422.5t-255 -251.5t-409.5 -86q-176 0 -315 45q-90 29 -178 95l-175 -167l-151 159l176 168q-119 185 -119 454q0 361 199.5 561.5t554.5 200.5q315 0 500 -139zM1054 1075
q-75 73 -206 73q-137 0 -220 -96.5t-83 -313.5q0 -68 10 -137zM1150 861l-501 -474q73 -73 203 -73q145 0 225.5 94t80.5 326q0 64 -8 127z" />
    <glyph glyph-name="infinity" unicode="&#x221e;" horiz-adv-x="1195" 
d="M548 854q74 121 151 174.5t172 53.5q132 0 219.5 -93.5t87.5 -255.5t-87.5 -255.5t-219.5 -93.5q-94 0 -171 53t-152 175q-60 -84 -138 -128t-149 -44q-101 0 -171.5 78.5t-70.5 214.5t70.5 214t171.5 78q71 0 149 -44t138 -127zM641 735q67 -103 94 -134.5t62.5 -50
t76.5 -18.5q76 0 117 59t41 146q0 94 -45 146t-110 52q-54 0 -106 -39t-130 -161zM462 737q-100 141 -190 141q-46 0 -79.5 -37t-33.5 -103q0 -68 33 -106t80 -38q39 0 70 21q54 36 120 122z" />
    <glyph glyph-name="plusminus" unicode="&#xb1;" horiz-adv-x="1352" 
d="M127 1072h383v373h323v-373h385v-315h-385v-356h-323v356h-383v315zM127 307h1091v-307h-1091v307z" />
    <glyph glyph-name="lessequal" unicode="&#x2264;" horiz-adv-x="1352" 
d="M1247 273l-1149 470v294l1149 475v-350l-703 -271l703 -268v-350zM98 200h1149v-324h-1149v324z" />
    <glyph glyph-name="greaterequal" unicode="&#x2265;" horiz-adv-x="1352" 
d="M105 273l1149 470v294l-1149 475v-350l703 -271l-703 -268v-350zM1254 200h-1149v-324h1149v324z" />
    <glyph glyph-name="yen" unicode="&#xa5;" 
d="M-2 1466h457l229 -498l226 498h458l-349 -632h297v-221h-421v-121h421v-224h-421v-268h-416v268h-428v224h428v121h-428v221h306z" />
    <glyph glyph-name="uni00B5" unicode="&#xb5;" 
d="M120 1062h408v-534q0 -114 30 -156q44 -65 127 -65q77 0 115 58.5t38 173.5v523h406v-1062h-382v84q-33 -56 -64 -76q-49 -32 -101 -32q-48 0 -101 29q-35 19 -68 72v-479h-408v1464z" />
    <glyph glyph-name="partialdiff" unicode="&#x2202;" horiz-adv-x="1024" 
d="M377 1150h-42q52 146 142.5 215t205.5 69q152 0 223 -102t71 -291q0 -360 -106 -620.5t-238 -365.5q-97 -78 -232 -78q-97 0 -169 39.5t-109.5 117t-37.5 159.5q0 130 61.5 252.5t151.5 211t185.5 133t188.5 44.5q164 0 236 -150q8 82 8 127q0 171 -116 265
q-71 58 -197 58q-81 0 -131.5 -20t-94.5 -64zM892 691q-34 103 -89.5 147.5t-124.5 44.5q-70 0 -136 -61q-86 -80 -143.5 -262t-57.5 -348q0 -97 30 -132.5t89 -35.5q99 0 200 117q166 195 232 530z" />
    <glyph glyph-name="summation" unicode="&#x2211;" horiz-adv-x="1460" 
d="M1356 -431h-1313v36l669 932l-669 917v37h1278l27 -336h-40q-16 137 -77.5 196.5t-171.5 59.5h-740l562 -788l-629 -878h818q70 0 153 28q57 18 94.5 66.5t62.5 152.5l40 -8z" />
    <glyph glyph-name="product" unicode="&#x220f;" horiz-adv-x="1685" 
d="M1240 1413h-795v-1652q0 -83 37 -119t125 -36h36v-37h-597v37h35q88 0 125.5 36t37.5 119v1538q0 83 -37 119t-126 36h-35v37h1594v-37h-35q-88 0 -125 -36t-37 -119v-1538q0 -83 37 -119t125 -36h35v-37h-597v37h35q88 0 125 36t37 119v1652z" />
    <glyph glyph-name="glyph155" horiz-adv-x="1408" 
d="M51 1063h1331v-202h-169v-861h-288v861h-415v-861h-292v861h-167v202z" />
    <glyph glyph-name="integral" unicode="&#x222b;" horiz-adv-x="555" 
d="M198 948l18 548q9 113 31.5 187t45.5 104.5t62.5 53t76.5 22.5q50 0 87.5 -33.5t37.5 -73.5q0 -47 -26.5 -75.5t-65.5 -28.5q-35 0 -76 36q-23 20 -40 20t-28.5 -14.5t-11.5 -49.5q0 -42 9 -145q37 -410 37 -665q0 -67 -14 -526q-5 -164 -20 -256q-20 -122 -52 -175
t-70.5 -75t-83.5 -22q-52 0 -85 34t-33 87q0 45 25.5 72t64.5 27q40 0 69 -32t49 -32q17 0 28 14t11 47q0 42 -9 120q-37 315 -37 831z" />
    <glyph glyph-name="ordfeminine" unicode="&#xaa;" horiz-adv-x="819" 
d="M761 761h-218q-15 31 -24 67q-46 -43 -90 -60q-62 -24 -144 -24q-125 0 -188.5 59t-63.5 156q0 88 53 141q52 53 224 84q104 18 190 49q0 56 -22 77.5t-79 21.5q-53 0 -77.5 -17t-37.5 -61l-221 43q19 71 54 111.5t91 61.5t167 21q212 0 282 -56q69 -57 69 -181v-337
q0 -62 6.5 -90.5t28.5 -65.5zM500 1096q-57 -20 -122 -32.5t-88 -34.5q-24 -22 -24 -52q0 -36 26 -60t71 -24q63 0 100 40t37 124v39z" />
    <glyph glyph-name="ordmasculine" unicode="&#xba;" horiz-adv-x="819" 
d="M23 1117q0 95 43 184.5t133 139.5t214 50q172 0 273.5 -103t101.5 -274q0 -165 -103 -268t-271 -103q-133 0 -223 54.5t-129 144.5t-39 175zM271 1117q0 -108 43 -160q33 -40 97 -40q57 0 94 46t37 154q0 110 -37.5 156.5t-97.5 46.5q-61 0 -98.5 -46.5t-37.5 -156.5z
" />
    <glyph glyph-name="uni2126" unicode="&#x2126;" horiz-adv-x="1749" 
d="M551 206q-116 49 -185 112q-101 90 -150.5 216t-49.5 277q0 310 191.5 501t508.5 191q233 0 389.5 -79t250 -244.5t93.5 -366.5q0 -202 -93.5 -360.5t-288.5 -244.5l330 23h72v-231h-642v243q97 47 153 105q76 80 114.5 194.5t38.5 241.5q0 247 -114.5 373.5
t-292.5 126.5q-170 0 -284.5 -129.5t-114.5 -365.5q0 -136 43.5 -253t124.5 -198q52 -52 144 -95v-243h-645v230h98z" />
    <glyph glyph-name="ae" unicode="&#xe6;" horiz-adv-x="2048" 
d="M1990 431h-771q11 -96 47 -143q55 -71 144 -71q50 0 86.5 22.5t71.5 77.5l397 -35q-81 -151 -209.5 -228.5t-343.5 -77.5q-165 0 -284 48q-90 36 -173 120q-123 -90 -233.5 -129t-245.5 -39q-203 0 -305 85.5t-102 223.5q0 69 32 130t81 97q65 47 141 73q35 12 171 38
t175 36q67 17 156 47q-2 80 -32.5 109t-111.5 29q-85 0 -127 -30.5t-59 -96.5l-391 45q29 106 68 160q53 74 161.5 119.5t305.5 45.5q158 0 260 -28q73 -20 161 -77q92 58 167.5 81t178.5 23q154 0 264.5 -44t180.5 -119.5t100 -150.5q39 -99 39 -274v-67zM1584 626
q-8 103 -52.5 160t-125.5 57q-72 0 -123.5 -52t-66.5 -165h368zM825 507l-125 -41q-24 -8 -42 -11q-99 -19 -138.5 -57t-39.5 -79q0 -46 33 -78t87 -32q55 0 113 28t89 85q23 41 23 109v76z" />
    <glyph glyph-name="oslash" unicode="&#xf8;" 
d="M1153 1156l104 -94l-124 -136q69 -58 114 -164t45 -230q0 -244 -161 -400t-438 -156q-113 0 -199 19q-59 13 -149 56l-133 -148l-105 97l127 135q-85 91 -123 183t-38 208q0 245 163 402.5t438 157.5q112 0 200 -21q59 -14 146 -58zM821 785q-28 27 -48 35q-39 16 -88 16
q-101 0 -166.5 -77.5t-65.5 -236.5q0 -53 17 -126zM545 270q33 -26 54 -34q40 -14 88 -14q98 0 161.5 77.5t63.5 243.5q0 51 -17 117z" />
    <glyph glyph-name="questiondown" unicode="&#xbf;" horiz-adv-x="1251" 
d="M466 602h380v-38q0 -97 -22 -157.5t-65.5 -110.5t-195.5 -176q-81 -66 -81 -121t32.5 -85.5t98.5 -30.5q71 0 117.5 47t59.5 164l388 -48q-20 -214 -155.5 -344.5t-415.5 -130.5q-218 0 -352 91q-182 123 -182 328q0 85 47 164t192 193q101 80 127.5 128.5t26.5 126.5z
M859 703h-407v359h407v-359z" />
    <glyph glyph-name="exclamdown" unicode="&#xa1;" horiz-adv-x="682" 
d="M124 -404h435v334l-84 671h-269l-82 -671v-334zM139 703h406v359h-406v-359z" />
    <glyph glyph-name="logicalnot" unicode="&#xac;" horiz-adv-x="1352" 
d="M126 1133h1092v-817h-326v492h-766v325z" />
    <glyph glyph-name="radical" unicode="&#x221a;" horiz-adv-x="1124" 
d="M1050 1869h74l-312 -1947l-496 1021l-198 -91l-34 64l301 151l405 -823z" />
    <glyph glyph-name="florin" unicode="&#x192;" 
d="M986 999h198l-63 -290h-195l-188 -882q-27 -126 -113.5 -192t-245.5 -66q-148 0 -342 59l73 260q103 -36 154 -36q39 0 61 21.5t39 102.5l156 733h-191l59 290h195l45 213q17 85 57.5 148t117.5 97t187 34q166 0 345 -62l-73 -262q-93 39 -153 39q-39 0 -61.5 -23.5
t-44.5 -112.5z" />
    <glyph glyph-name="approxequal" unicode="&#x2248;" horiz-adv-x="1352" 
d="M1246 1213v-325q-115 -93 -186 -123.5t-147 -30.5q-58 0 -116.5 17t-183 80t-196.5 63q-154 0 -318 -161v329q93 83 174 118t177 35q49 0 103 -15.5t158.5 -66.5t148.5 -63.5t83 -12.5q134 0 303 156zM1246 731v-326q-115 -92 -186 -123t-147 -31q-58 0 -116.5 17
t-183 80t-196.5 63q-154 0 -318 -160v329q93 83 174 117.5t177 34.5q49 0 103 -15.5t158.5 -66t148.5 -63.5t83 -13q134 0 303 157z" />
    <glyph glyph-name="uni2206" unicode="&#x2206;" horiz-adv-x="1253" 
d="M1226 0h-1200l628 1387zM990 82l-399 967l-440 -967h839z" />
    <glyph glyph-name="guillemotleft" unicode="&#xab;" 
d="M932 996h313l-277 -463l277 -462h-313l-318 462zM414 996h312l-277 -463l277 -462h-312l-319 462z" />
    <glyph glyph-name="guillemotright" unicode="&#xbb;" 
d="M434 996h-313l277 -463l-277 -462h313l318 462zM952 996h-312l277 -463l-277 -462h312l319 462z" />
    <glyph glyph-name="ellipsis" unicode="&#x2026;" horiz-adv-x="2048" 
d="M124 408h435v-408h-435v408zM807 408h435v-408h-435v408zM1489 408h435v-408h-435v408z" />
    <glyph glyph-name="uni00A0" unicode="&#xa0;" horiz-adv-x="683" 
 />
    <glyph glyph-name="Agrave" unicode="&#xc0;" horiz-adv-x="1593" 
d="M1052 242h-516l-71 -242h-463l551 1466h494l551 -1466h-474zM957 559l-162 527l-161 -527h323zM457 1854h347l164 -298h-192z" />
    <glyph glyph-name="Atilde" unicode="&#xc3;" horiz-adv-x="1593" 
d="M1052 242h-516l-71 -242h-463l551 1466h494l551 -1466h-474zM957 559l-162 527l-161 -527h323zM999 1829h158q1 -26 1 -45q0 -111 -56 -172t-144 -61q-64 0 -194 53q-79 32 -109 32q-29 0 -45 -18t-17 -64h-156q-1 24 -1 42q0 107 59 170t140 63q35 0 66 -8t114.5 -43
t121.5 -35q27 0 43.5 18.5t18.5 67.5z" />
    <glyph glyph-name="Otilde" unicode="&#xd5;" horiz-adv-x="1706" 
d="M93 732q0 359 200 559t557 200q366 0 564 -196.5t198 -550.5q0 -257 -86.5 -421.5t-250 -256t-407.5 -91.5q-248 0 -410.5 79t-263.5 250t-101 428zM546 730q0 -222 82.5 -319t224.5 -97q146 0 226 95t80 341q0 207 -83.5 302.5t-226.5 95.5q-137 0 -220 -97t-83 -321z
M1055 1829h158q1 -26 1 -45q0 -111 -56 -172t-144 -61q-64 0 -194 53q-79 32 -109 32q-29 0 -45 -18t-17 -64h-156q-1 24 -1 42q0 107 59 170t140 63q35 0 66 -8t114.5 -43t121.5 -35q27 0 43.5 18.5t18.5 67.5z" />
    <glyph glyph-name="OE" unicode="&#x152;" horiz-adv-x="2048" 
d="M1013 1466h941v-313h-542v-233h486v-299h-486v-289h572v-332h-971v162q-64 -93 -138 -134q-98 -54 -236 -54q-249 0 -392 168q-176 208 -176 586q0 382 173 589q146 174 376 174q133 0 225.5 -45.5t167.5 -134.5v155zM741 1155q-74 0 -134.5 -47.5t-84 -126.5t-23.5 -275
q0 -164 31.5 -242.5t91.5 -117.5t119 -39q61 0 123 42.5t90 120.5t28 277q0 162 -26.5 242t-86 123t-128.5 43z" />
    <glyph glyph-name="oe" unicode="&#x153;" horiz-adv-x="2048" 
d="M1990 436h-773q9 -118 58 -168t128 -50q52 0 90 23t74 75l392 -36q-67 -149 -207 -226.5t-333 -77.5q-244 0 -415 118q-99 -65 -181.5 -91.5t-182.5 -26.5q-259 0 -420 159.5t-161 407.5q0 275 201 431q143 112 374 112q112 0 198 -27t189 -96q92 62 186 92.5t211 30.5
q267 0 420.5 -154t153.5 -426q0 -23 -2 -70zM1583 629q-12 118 -58 166.5t-122 48.5q-75 0 -125.5 -50.5t-64.5 -164.5h370zM466 543q0 -148 43.5 -209t126.5 -61q84 0 130 58t46 225q0 139 -46 196.5t-115 57.5q-88 0 -136.5 -58t-48.5 -209z" />
    <glyph glyph-name="endash" unicode="&#x2013;" horiz-adv-x="1024" 
d="M-12 646h1048v-222h-1048v222z" />
    <glyph glyph-name="emdash" unicode="&#x2014;" horiz-adv-x="2048" 
d="M-12 646h2072v-222h-2072v222z" />
    <glyph glyph-name="quotedblleft" unicode="&#x201c;" horiz-adv-x="1024" 
d="M490 675h-435v335q0 185 77 292t264 189l94 -178q-115 -54 -159 -107.5t-49 -126.5h208v-404zM997 675h-435v335q0 185 77 292t264 189l94 -178q-115 -54 -159 -107.5t-49 -126.5h208v-404z" />
    <glyph glyph-name="quotedblright" unicode="&#x201d;" horiz-adv-x="1024" 
d="M55 1491h435v-335q0 -185 -77 -292.5t-263 -188.5l-95 178q116 54 159.5 107.5t48.5 126.5h-208v404zM562 1491h435v-335q0 -185 -77 -292.5t-263 -188.5l-95 178q116 54 159.5 107.5t48.5 126.5h-208v404z" />
    <glyph glyph-name="quoteleft" unicode="&#x2018;" horiz-adv-x="569" 
d="M505 675h-435v335q0 185 77 292t264 189l94 -178q-115 -54 -159 -107.5t-49 -126.5h208v-404z" />
    <glyph glyph-name="quoteright" unicode="&#x2019;" horiz-adv-x="569" 
d="M70 1491h435v-335q0 -185 -77 -292.5t-263 -188.5l-95 178q116 54 159.5 107.5t48.5 126.5h-208v404z" />
    <glyph glyph-name="divide" unicode="&#xf7;" horiz-adv-x="1352" 
d="M470 1356h401v-369h-401v369zM127 896h1091v-326h-1091v326zM470 478h401v-373h-401v373z" />
    <glyph glyph-name="lozenge" unicode="&#x25ca;" horiz-adv-x="1012" 
d="M549 1422l418 -713l-418 -709h-111l-391 709l391 713h111zM495 1325l-340 -616l340 -615l359 615z" />
    <glyph glyph-name="ydieresis" unicode="&#xff;" horiz-adv-x="1251" 
d="M5 1062h430l219 -707l203 707h401l-421 -1135q-72 -194 -147 -262q-106 -96 -323 -96q-88 0 -272 24l-32 284q88 -28 196 -28q72 0 116.5 33t75.5 118zM283 1446h260v-250h-260v250zM707 1446h263v-250h-263v250z" />
    <glyph glyph-name="Ydieresis" unicode="&#x178;" horiz-adv-x="1593" 
d="M2 1466h503l296 -495l296 495h500l-570 -852v-614h-454v614zM454 1809h260v-250h-260v250zM878 1809h263v-250h-263v250z" />
    <glyph glyph-name="fraction" unicode="&#x2044;" horiz-adv-x="342" 
d="M523 1491h215l-922 -1544h-213z" />
    <glyph glyph-name="fraction" unicode="&#x2215;" horiz-adv-x="342" 
d="M523 1491h215l-922 -1544h-213z" />
    <glyph glyph-name="Euro" unicode="&#x20ac;" 
d="M999 684l-43 -182h-303q59 -187 256 -187q216 0 404 140v-373q-156 -107 -377 -107q-357 0 -528 163t-209 364h-181l48 182h110q-2 15 -2 53q0 40 2 58h-133l47 182h109q130 514 714 514q191 0 387 -102l-90 -363q-136 125 -284 125q-194 0 -262 -174h360l-43 -182h-352
q-2 -20 -2 -58v-53h372z" />
    <glyph glyph-name="guilsinglleft" unicode="&#x2039;" horiz-adv-x="682" 
d="M342 996h312l-277 -463l277 -462h-312l-319 462z" />
    <glyph glyph-name="guilsinglright" unicode="&#x203a;" horiz-adv-x="682" 
d="M340 996h-312l277 -463l-277 -462h312l319 462z" />
    <glyph glyph-name="uniFB01" unicode="&#xfb01;" 
d="M522 1062h182v-298h-182v-764h-370v764h-132v298h132v48q0 60 13.5 140.5t54.5 132t113 80t175 28.5q78 0 283 -23l-45 -245q-72 10 -103 10q-66 0 -93.5 -30t-27.5 -117v-24zM871 1466h371v-277h-371v277zM871 1062h371v-1062h-371v1062z" />
    <glyph glyph-name="uniFB02" unicode="&#xfb02;" 
d="M522 1062h182v-298h-182v-764h-370v764h-132v298h132v48q0 60 13.5 140.5t54.5 132t113 80t175 28.5q78 0 283 -23l-45 -245q-72 10 -103 10q-66 0 -93.5 -30t-27.5 -117v-24zM871 1466h371v-1466h-371v1466z" />
    <glyph glyph-name="daggerdbl" unicode="&#x2021;" 
d="M511 1466h352v-334h374v-297h-374v-612h374v-296h-374v-334h-352v334h-370v296h370v612h-370v297h370v334z" />
    <glyph glyph-name="uni2219" unicode="&#x2219;" horiz-adv-x="682" 
d="M124 937h435v-408h-435v408z" />
    <glyph glyph-name="quotesinglbase" unicode="&#x201a;" horiz-adv-x="569" 
d="M70 404h435v-335q0 -185 -77 -292t-263 -189l-95 178q116 54 159.5 107.5t48.5 126.5h-208v404z" />
    <glyph glyph-name="quotedblbase" unicode="&#x201e;" horiz-adv-x="1024" 
d="M55 404h435v-335q0 -185 -77 -292t-263 -189l-95 178q116 54 159.5 107.5t48.5 126.5h-208v404zM562 404h435v-335q0 -185 -77 -292t-263 -189l-95 178q116 54 159.5 107.5t48.5 126.5h-208v404z" />
    <glyph glyph-name="perthousand" unicode="&#x2030;" horiz-adv-x="2048" 
d="M0 1105q0 200 83.5 293t219.5 93t220 -92.5t84 -282.5q0 -210 -83.5 -303t-220.5 -93q-136 0 -219.5 93t-83.5 292zM211 1105q0 -148 26 -188t65 -40q40 0 66 40t26 188t-26 188t-66 40q-39 0 -65 -40t-26 -188zM874 1491h180l-572 -1565h-178zM743 312q0 200 83.5 293
t219.5 93t220 -93t84 -283q0 -209 -83.5 -302.5t-220.5 -93.5q-136 0 -219.5 93.5t-83.5 292.5zM954 311q0 -148 26 -188t66 -40q39 0 65 40t26 188t-26 188.5t-65 40.5q-40 0 -66 -40.5t-26 -188.5zM1442 312q0 200 83.5 293t219.5 93q135 0 219 -93t84 -283
q0 -209 -83 -302.5t-220 -93.5q-136 0 -219.5 93.5t-83.5 292.5zM1652 311q0 -148 26 -188t66 -40t66 40t26 188t-26 188.5t-66 40.5t-66 -40.5t-26 -188.5z" />
    <glyph glyph-name="Acircumflex" unicode="&#xc2;" horiz-adv-x="1593" 
d="M1052 242h-516l-71 -242h-463l551 1466h494l551 -1466h-474zM957 559l-162 527l-161 -527h323zM657 1841h289l222 -286h-248l-122 153l-122 -153h-248z" />
    <glyph glyph-name="Ecircumflex" unicode="&#xca;" horiz-adv-x="1479" 
d="M149 1466h1214v-313h-760v-233h705v-299h-705v-289h782v-332h-1236v1466zM600 1841h289l222 -286h-248l-122 153l-122 -153h-248z" />
    <glyph glyph-name="Aacute" unicode="&#xc1;" horiz-adv-x="1593" 
d="M1052 242h-516l-71 -242h-463l551 1466h494l551 -1466h-474zM957 559l-162 527l-161 -527h323zM787 1854h350l-323 -299h-195z" />
    <glyph glyph-name="Edieresis" unicode="&#xcb;" horiz-adv-x="1479" 
d="M149 1466h1214v-313h-760v-233h705v-299h-705v-289h782v-332h-1236v1466zM397 1809h260v-250h-260v250zM821 1809h263v-250h-263v250z" />
    <glyph glyph-name="Egrave" unicode="&#xc8;" horiz-adv-x="1479" 
d="M149 1466h1214v-313h-760v-233h705v-299h-705v-289h782v-332h-1236v1466zM400 1854h347l164 -298h-192z" />
    <glyph glyph-name="Iacute" unicode="&#xcd;" horiz-adv-x="797" 
d="M168 1466h454v-1466h-454v1466zM389 1854h350l-323 -299h-195z" />
    <glyph glyph-name="Icircumflex" unicode="&#xce;" horiz-adv-x="797" 
d="M168 1466h454v-1466h-454v1466zM259 1841h289l222 -286h-248l-122 153l-122 -153h-248z" />
    <glyph glyph-name="Idieresis" unicode="&#xcf;" horiz-adv-x="797" 
d="M168 1466h454v-1466h-454v1466zM56 1809h260v-250h-260v250zM480 1809h263v-250h-263v250z" />
    <glyph glyph-name="Igrave" unicode="&#xcc;" horiz-adv-x="797" 
d="M168 1466h454v-1466h-454v1466zM59 1854h347l164 -298h-192z" />
    <glyph glyph-name="Oacute" unicode="&#xd3;" horiz-adv-x="1706" 
d="M93 732q0 359 200 559t557 200q366 0 564 -196.5t198 -550.5q0 -257 -86.5 -421.5t-250 -256t-407.5 -91.5q-248 0 -410.5 79t-263.5 250t-101 428zM546 730q0 -222 82.5 -319t224.5 -97q146 0 226 95t80 341q0 207 -83.5 302.5t-226.5 95.5q-137 0 -220 -97t-83 -321z
M843 1854h350l-323 -299h-195z" />
    <glyph glyph-name="Ocircumflex" unicode="&#xd4;" horiz-adv-x="1706" 
d="M93 732q0 359 200 559t557 200q366 0 564 -196.5t198 -550.5q0 -257 -86.5 -421.5t-250 -256t-407.5 -91.5q-248 0 -410.5 79t-263.5 250t-101 428zM546 730q0 -222 82.5 -319t224.5 -97q146 0 226 95t80 341q0 207 -83.5 302.5t-226.5 95.5q-137 0 -220 -97t-83 -321z
M713 1841h289l222 -286h-248l-122 153l-122 -153h-248z" />
    <glyph glyph-name="glyph210" horiz-adv-x="1621" 
 />
    <glyph glyph-name="Ograve" unicode="&#xd2;" horiz-adv-x="1706" 
d="M93 732q0 359 200 559t557 200q366 0 564 -196.5t198 -550.5q0 -257 -86.5 -421.5t-250 -256t-407.5 -91.5q-248 0 -410.5 79t-263.5 250t-101 428zM546 730q0 -222 82.5 -319t224.5 -97q146 0 226 95t80 341q0 207 -83.5 302.5t-226.5 95.5q-137 0 -220 -97t-83 -321z
M513 1854h347l164 -298h-192z" />
    <glyph glyph-name="Uacute" unicode="&#xda;" horiz-adv-x="1706" 
d="M1104 1466h452v-874q0 -130 -40.5 -245.5t-127 -202t-181.5 -121.5q-132 -49 -317 -49q-107 0 -233.5 15t-211.5 59.5t-155.5 126.5t-96.5 169q-42 140 -42 248v874h452v-895q0 -120 66.5 -187.5t184.5 -67.5q117 0 183.5 66.5t66.5 188.5v895zM843 1854h350l-323 -299
h-195z" />
    <glyph glyph-name="Ucircumflex" unicode="&#xdb;" horiz-adv-x="1706" 
d="M1104 1466h452v-874q0 -130 -40.5 -245.5t-127 -202t-181.5 -121.5q-132 -49 -317 -49q-107 0 -233.5 15t-211.5 59.5t-155.5 126.5t-96.5 169q-42 140 -42 248v874h452v-895q0 -120 66.5 -187.5t184.5 -67.5q117 0 183.5 66.5t66.5 188.5v895zM713 1841h289l222 -286
h-248l-122 153l-122 -153h-248z" />
    <glyph glyph-name="Ugrave" unicode="&#xd9;" horiz-adv-x="1706" 
d="M1104 1466h452v-874q0 -130 -40.5 -245.5t-127 -202t-181.5 -121.5q-132 -49 -317 -49q-107 0 -233.5 15t-211.5 59.5t-155.5 126.5t-96.5 169q-42 140 -42 248v874h452v-895q0 -120 66.5 -187.5t184.5 -67.5q117 0 183.5 66.5t66.5 188.5v895zM513 1854h347l164 -298
h-192z" />
    <glyph glyph-name="dotlessi" unicode="&#x131;" horiz-adv-x="682" 
d="M138 1062h407v-1062h-407v1062z" />
    <glyph glyph-name="circumflex" unicode="&#x2c6;" horiz-adv-x="682" 
d="M201 1478h289l222 -286h-248l-122 153l-122 -153h-248z" />
    <glyph glyph-name="tilde" unicode="&#x2dc;" horiz-adv-x="682" 
d="M543 1466h158q1 -26 1 -45q0 -111 -56 -172t-144 -61q-64 0 -194 53q-79 32 -109 32q-29 0 -45 -18t-17 -64h-156q-1 24 -1 42q0 107 59 170t140 63q35 0 66 -8t114.5 -43t121.5 -35q27 0 43.5 18.5t18.5 67.5z" />
    <glyph glyph-name="uni02C9" unicode="&#x2c9;" horiz-adv-x="682" 
d="M18 1446h647v-217h-647v217z" />
    <glyph glyph-name="breve" unicode="&#x2d8;" horiz-adv-x="682" 
d="M518 1491h165q-6 -95 -45 -159.5t-118 -103.5t-171 -39q-152 0 -243 79.5t-106 222.5h172q20 -58 57 -82.5t111 -24.5q87 0 124.5 24.5t53.5 82.5z" />
    <glyph glyph-name="dotaccent" unicode="&#x2d9;" horiz-adv-x="683" 
d="M184 1496h314v-300h-314v300z" />
    <glyph glyph-name="ring" unicode="&#x2da;" horiz-adv-x="682" 
d="M581 1403q0 -100 -70.5 -170t-169.5 -70q-100 0 -170.5 70t-70.5 170t70.5 170.5t170.5 70.5q99 0 169.5 -70.5t70.5 -170.5zM443 1404q0 43 -30 73t-73 30t-73 -30t-30 -73t30 -73t73 -30t73 30t30 73z" />
    <glyph glyph-name="cedilla" unicode="&#xb8;" horiz-adv-x="682" 
d="M116 -165l30 118q94 23 176 23q171 0 236 -58t65 -137q0 -48 -29.5 -99t-105.5 -82t-202 -31q-114 0 -268 26v123q104 -20 221 -20q86 0 116.5 23t30.5 60q0 29 -25 50t-78 21q-71 0 -167 -17z" />
    <glyph glyph-name="hungarumlaut" unicode="&#x2dd;" horiz-adv-x="682" 
d="M214 1491h325l-296 -295h-197zM611 1491h328l-302 -295h-191z" />
    <glyph glyph-name="ogonek" unicode="&#x2db;" horiz-adv-x="682" 
d="M200 26h169q-20 -87 -20 -144q0 -76 37 -115t103 -39q47 0 128 26v-155q-124 -46 -212 -46q-120 0 -186.5 64t-66.5 170q0 89 48 239z" />
    <glyph glyph-name="caron" unicode="&#x2c7;" horiz-adv-x="682" 
d="M482 1192h-288l-222 286h247l122 -153l122 153h249z" />
    <glyph glyph-name="Lslash" unicode="&#x141;" 
d="M150 1466h453v-404l318 239v-280l-318 -240v-420h706v-361h-1159v439l-151 -116v280l151 114v749z" />
    <glyph glyph-name="lslash" unicode="&#x142;" horiz-adv-x="682" 
d="M138 1466h409v-469l136 89v-196l-136 -91v-799h-409v528l-138 -92v196l138 93v741z" />
    <glyph glyph-name="Scaron" unicode="&#x160;" horiz-adv-x="1479" 
d="M71 485l431 27q14 -105 57 -160q70 -89 200 -89q97 0 149.5 45.5t52.5 105.5q0 57 -50 102t-232 85q-298 67 -425 178q-128 111 -128 283q0 113 65.5 213.5t197 158t360.5 57.5q281 0 428.5 -104.5t175.5 -332.5l-427 -25q-17 99 -71.5 144t-150.5 45q-79 0 -119 -33.5
t-40 -81.5q0 -35 33 -63q32 -29 152 -54q297 -64 425.5 -129.5t187 -162.5t58.5 -217q0 -141 -78 -260t-218 -180.5t-353 -61.5q-374 0 -518 144t-163 366zM881 1555h-288l-222 286h247l122 -153l122 153h249z" />
    <glyph glyph-name="scaron" unicode="&#x161;" horiz-adv-x="1251" 
d="M51 294l404 38q25 -72 70 -103t120 -31q82 0 127 35q35 26 35 65q0 44 -46 68q-33 17 -175 42q-212 37 -294.5 68.5t-139 106.5t-56.5 171q0 105 61 181t168 113.5t287 37.5q190 0 280.5 -29t151 -90t100.5 -165l-386 -38q-15 51 -50 75q-48 32 -116 32
q-69 0 -100.5 -24.5t-31.5 -59.5q0 -39 40 -59t174 -36q203 -23 302 -64t151.5 -117t52.5 -167q0 -92 -55.5 -179t-175 -138.5t-325.5 -51.5q-291 0 -414.5 83t-158.5 236zM767 1192h-288l-222 286h247l122 -153l122 153h249z" />
    <glyph glyph-name="Zcaron" unicode="&#x17d;" horiz-adv-x="1479" 
d="M113 1466h1282v-293l-822 -858h852v-315h-1391v304l813 849h-734v313zM881 1555h-288l-222 286h247l122 -153l122 153h249z" />
    <glyph glyph-name="zcaron" unicode="&#x17e;" horiz-adv-x="1139" 
d="M77 1062h985v-238l-536 -546h569v-278h-1058v264l508 520h-468v278zM711 1192h-288l-222 286h247l122 -153l122 153h249z" />
    <glyph glyph-name="brokenbar" unicode="&#xa6;" horiz-adv-x="569" 
d="M160 1466h255v-776h-255v776zM160 373h255v-777h-255v777z" />
    <glyph glyph-name="Eth" unicode="&#xd0;" horiz-adv-x="1593" 
d="M156 1466h673q199 0 321.5 -54t202.5 -154.5t115.5 -234.5t35.5 -284q0 -241 -55 -370.5t-149 -215t-204 -114.5q-147 -39 -267 -39h-673v622h-154v221h154v623zM609 1134v-291h220v-221h-220v-289h111q142 0 202 31.5t94 110t34 254.5q0 233 -76.5 319t-252.5 86h-112z
" />
    <glyph glyph-name="eth" unicode="&#xf0;" 
d="M321 1200l253 90q-65 64 -116.5 102.5t-118.5 73.5h412q60 -32 113 -72l203 72l37 -101l-146 -54q166 -168 249 -350t83 -379q0 -285 -161 -445.5t-442 -160.5q-191 0 -333.5 72.5t-210.5 207t-68 275.5q0 146 66 271t186 192.5t242 67.5q60 0 117 -17q38 -12 94 -46
q-68 119 -129 201l-293 -107zM483 528q0 -143 57.5 -210t139.5 -67q76 0 142 65.5t66 230.5q0 144 -64.5 202t-140.5 58q-84 0 -142 -67t-58 -212z" />
    <glyph glyph-name="Yacute" unicode="&#xdd;" horiz-adv-x="1593" 
d="M2 1466h503l296 -495l296 495h500l-570 -852v-614h-454v614zM787 1854h350l-323 -299h-195z" />
    <glyph glyph-name="yacute" unicode="&#xfd;" horiz-adv-x="1251" 
d="M5 1062h430l219 -707l203 707h401l-421 -1135q-72 -194 -147 -262q-106 -96 -323 -96q-88 0 -272 24l-32 284q88 -28 196 -28q72 0 116.5 33t75.5 118zM616 1491h350l-323 -299h-195z" />
    <glyph glyph-name="Thorn" unicode="&#xde;" horiz-adv-x="1479" 
d="M148 1466h455v-261l298 -1q246 0 368.5 -117t122.5 -333q0 -221 -133.5 -346t-407.5 -125h-248v-283h-455v1466zM603 580h111q131 0 184 45.5t53 116.5q0 68 -46 116.5t-173 48.5h-129v-327z" />
    <glyph glyph-name="thorn" unicode="&#xfe;" 
d="M125 -404v1870h411v-507q64 67 134 97t168 30q218 0 337 -159.5t119 -406.5q0 -265 -127 -404.5t-321 -139.5q-94 0 -171.5 32t-138.5 95v-507h-411zM533 528q0 -126 53 -187t134 -61q71 0 119 58.5t48 198.5q0 129 -50 189.5t-122 60.5q-78 0 -130 -61t-52 -198z" />
    <glyph glyph-name="minus" unicode="&#x2212;" horiz-adv-x="1352" 
d="M127 895h1091v-324h-1091v324z" />
    <glyph glyph-name="multiply" unicode="&#xd7;" horiz-adv-x="1352" 
d="M355 1280l318 -315l315 315l232 -231l-317 -315l317 -319l-232 -229l-315 319l-318 -319l-230 229l318 319l-318 315z" />
    <glyph glyph-name="uni00B9" unicode="&#xb9;" horiz-adv-x="819" 
d="M627 1491v-750h-260v448q-56 -33 -101.5 -49.5t-124.5 -32.5v207q184 45 288 177h198z" />
    <glyph glyph-name="uni00B2" unicode="&#xb2;" horiz-adv-x="819" 
d="M791 741h-769q25 91 80.5 156t247.5 193q111 74 141 110q29 36 29 65q0 30 -22.5 49t-69.5 19q-49 0 -82 -26.5t-48 -86.5l-246 21q18 80 48 120q43 59 127 94.5t212 35.5q181 0 265 -66t84 -158q0 -69 -42 -127q-43 -59 -142.5 -117t-161.5 -99h349v-183z" />
    <glyph glyph-name="uni00B3" unicode="&#xb3;" horiz-adv-x="819" 
d="M301 1258l-258 40q49 94 121 137q96 56 256 56q180 0 272 -67q65 -48 65 -124q0 -53 -36 -98q-25 -31 -90 -62q80 -26 118 -77t38 -118q0 -94 -73 -149q-99 -75 -303 -75q-191 0 -293 78q-59 45 -87 134l254 29q16 -48 45 -69t77 -21q56 0 87.5 27.5t31.5 65.5
q0 51 -56 79q-32 16 -149 18l28 141q86 0 116 22t30 55q0 26 -20.5 43.5t-60.5 17.5q-41 0 -74 -23q-24 -17 -39 -60z" />
    <glyph glyph-name="onehalf" unicode="&#xbd;" horiz-adv-x="2048" 
d="M643 1491v-750h-260v448q-56 -33 -101.5 -49.5t-124.5 -32.5v207q184 45 288 177h198zM1369 1491h215l-922 -1544h-213zM1990 -29h-769q25 91 80.5 156t247.5 193q111 74 141 110q29 36 29 65q0 30 -22.5 49t-69.5 19q-49 0 -82 -26.5t-48 -86.5l-246 21q18 80 48 120
q43 59 127 94.5t212 35.5q181 0 265 -66t84 -158q0 -69 -42 -127q-43 -59 -142.5 -117t-161.5 -99h349v-183z" />
    <glyph glyph-name="onequarter" unicode="&#xbc;" horiz-adv-x="2048" 
d="M643 1491v-750h-260v448q-56 -33 -101.5 -49.5t-124.5 -32.5v207q184 45 288 177h198zM1400 1491h215l-922 -1544h-213zM1648 71h-408v189l418 461h214v-484h99v-166h-99v-121h-224v121zM1648 237v219l-204 -219h204z" />
    <glyph glyph-name="threequarters" unicode="&#xbe;" horiz-adv-x="2048" 
d="M340 1258l-258 40q49 94 121 137q96 56 256 56q180 0 272 -67q65 -48 65 -124q0 -53 -36 -98q-25 -31 -90 -62q80 -26 118 -77t38 -118q0 -94 -73 -149q-99 -75 -303 -75q-191 0 -293 78q-59 45 -87 134l254 29q16 -48 45 -69t77 -21q56 0 87.5 27.5t31.5 65.5
q0 51 -56 79q-32 16 -149 18l28 141q86 0 116 22t30 55q0 26 -20.5 43.5t-60.5 17.5q-41 0 -74 -23q-24 -17 -39 -60zM1425 1491h215l-922 -1544h-213zM1648 71h-408v189l418 461h214v-484h99v-166h-99v-121h-224v121zM1648 237v219l-204 -219h204z" />
    <glyph glyph-name="franc" unicode="&#x20a3;" horiz-adv-x="1707" 
d="M917 895v73h381v-174q56 113 114 155.5t145 42.5q89 0 196 -56l-126 -290q-72 30 -114 30q-80 0 -124 -66q-63 -93 -63 -348v-262h-409v599h-307v-599h-455v1466h1120v-315h-665v-256h307z" />
    <glyph glyph-name="Gbreve" unicode="&#x11e;" horiz-adv-x="1706" 
d="M887 531v305h700v-625q-201 -137 -355.5 -186.5t-366.5 -49.5q-261 0 -425.5 89t-255 265t-90.5 404q0 240 99 417.5t290 269.5q149 71 401 71q243 0 363.5 -44t200 -136.5t119.5 -234.5l-437 -78q-27 83 -91.5 127t-164.5 44q-149 0 -237.5 -103.5t-88.5 -327.5
q0 -238 89.5 -340t249.5 -102q76 0 145 22t158 75v138h-303zM1030 1854h165q-6 -95 -45 -159.5t-118 -103.5t-171 -39q-152 0 -243 79.5t-106 222.5h172q20 -58 57 -82.5t111 -24.5q87 0 124.5 24.5t53.5 82.5z" />
    <glyph glyph-name="gbreve" unicode="&#x11f;" 
d="M862 1062h381v-1003l1 -47q0 -100 -42.5 -190.5t-113 -146.5t-179 -81t-248.5 -25q-320 0 -439.5 96t-119.5 257q0 20 2 54l395 -45q15 -55 46 -76q45 -31 113 -31q88 0 131.5 47t43.5 164v161q-60 -71 -120 -103q-94 -50 -203 -50q-213 0 -344 186q-93 132 -93 349
q0 248 120 378t314 130q124 0 204.5 -42t150.5 -139v157zM479 547q0 -115 49 -170.5t129 -55.5q76 0 127.5 57.5t51.5 173.5t-54 177.5t-132 61.5t-124.5 -56.5t-46.5 -187.5zM860 1491h165q-6 -95 -45 -159.5t-118 -103.5t-171 -39q-152 0 -243 79.5t-106 222.5h172
q20 -58 57 -82.5t111 -24.5q87 0 124.5 24.5t53.5 82.5z" />
    <glyph glyph-name="Idotaccent" unicode="&#x130;" horiz-adv-x="797" 
d="M168 1466h454v-1466h-454v1466zM242 1855h314v-300h-314v300z" />
    <glyph glyph-name="Scedilla" unicode="&#x15e;" horiz-adv-x="1479" 
d="M71 485l431 27q14 -105 57 -160q70 -89 200 -89q97 0 149.5 45.5t52.5 105.5q0 57 -50 102t-232 85q-298 67 -425 178q-128 111 -128 283q0 113 65.5 213.5t197 158t360.5 57.5q281 0 428.5 -104.5t175.5 -332.5l-427 -25q-17 99 -71.5 144t-150.5 45q-79 0 -119 -33.5
t-40 -81.5q0 -35 33 -63q32 -29 152 -54q297 -64 425.5 -129.5t187 -162.5t58.5 -217q0 -141 -78 -260t-218 -180.5t-353 -61.5q-374 0 -518 144t-163 366zM515 -165l30 118q94 23 176 23q171 0 236 -58t65 -137q0 -48 -29.5 -99t-105.5 -82t-202 -31q-114 0 -268 26v123
q104 -20 221 -20q86 0 116.5 23t30.5 60q0 29 -25 50t-78 21q-71 0 -167 -17z" />
    <glyph glyph-name="scedilla" unicode="&#x15f;" horiz-adv-x="1251" 
d="M51 294l404 38q25 -72 70 -103t120 -31q82 0 127 35q35 26 35 65q0 44 -46 68q-33 17 -175 42q-212 37 -294.5 68.5t-139 106.5t-56.5 171q0 105 61 181t168 113.5t287 37.5q190 0 280.5 -29t151 -90t100.5 -165l-386 -38q-15 51 -50 75q-48 32 -116 32
q-69 0 -100.5 -24.5t-31.5 -59.5q0 -39 40 -59t174 -36q203 -23 302 -64t151.5 -117t52.5 -167q0 -92 -55.5 -179t-175 -138.5t-325.5 -51.5q-291 0 -414.5 83t-158.5 236zM401 -165l30 118q94 23 176 23q171 0 236 -58t65 -137q0 -48 -29.5 -99t-105.5 -82t-202 -31
q-114 0 -268 26v123q104 -20 221 -20q86 0 116.5 23t30.5 60q0 29 -25 50t-78 21q-71 0 -167 -17z" />
    <glyph glyph-name="Cacute" unicode="&#x106;" horiz-adv-x="1593" 
d="M1126 599l397 -120q-40 -167 -126 -279t-213.5 -169t-324.5 -57q-239 0 -390.5 69.5t-261.5 244.5t-110 448q0 364 193.5 559.5t547.5 195.5q277 0 435.5 -112t235.5 -344l-400 -89q-21 67 -44 98q-38 52 -93 80t-123 28q-154 0 -236 -124q-62 -92 -62 -289
q0 -244 74 -334.5t208 -90.5q130 0 196.5 73t96.5 212zM831 1854h350l-323 -299h-195z" />
    <glyph glyph-name="cacute" unicode="&#x107;" 
d="M915 415l387 -44q-32 -121 -105 -209.5t-186.5 -137.5t-288.5 -49q-169 0 -281.5 31.5t-193.5 102t-127 165.5t-46 252q0 164 56 273q41 80 112 143.5t146 94.5q119 49 305 49q260 0 396.5 -93t191.5 -272l-383 -51q-18 68 -65.5 102.5t-127.5 34.5q-101 0 -163.5 -72.5
t-62.5 -219.5q0 -131 62 -199t158 -68q80 0 134.5 41t81.5 126zM773 1491h350l-323 -299h-195z" />
    <glyph glyph-name="Ccaron" unicode="&#x10c;" horiz-adv-x="1593" 
d="M1126 599l397 -120q-40 -167 -126 -279t-213.5 -169t-324.5 -57q-239 0 -390.5 69.5t-261.5 244.5t-110 448q0 364 193.5 559.5t547.5 195.5q277 0 435.5 -112t235.5 -344l-400 -89q-21 67 -44 98q-38 52 -93 80t-123 28q-154 0 -236 -124q-62 -92 -62 -289
q0 -244 74 -334.5t208 -90.5q130 0 196.5 73t96.5 212zM982 1555h-288l-222 286h247l122 -153l122 153h249z" />
    <glyph glyph-name="ccaron" unicode="&#x10d;" 
d="M915 415l387 -44q-32 -121 -105 -209.5t-186.5 -137.5t-288.5 -49q-169 0 -281.5 31.5t-193.5 102t-127 165.5t-46 252q0 164 56 273q41 80 112 143.5t146 94.5q119 49 305 49q260 0 396.5 -93t191.5 -272l-383 -51q-18 68 -65.5 102.5t-127.5 34.5q-101 0 -163.5 -72.5
t-62.5 -219.5q0 -131 62 -199t158 -68q80 0 134.5 41t81.5 126zM844 1192h-288l-222 286h247l122 -153l122 153h249z" />
    <glyph glyph-name="dcroat" unicode="&#x111;" 
d="M1241 1350h184v-163h-184v-1187h-381v157q-80 -100 -146 -135q-88 -46 -196 -46q-217 0 -331.5 165t-114.5 401q0 264 126.5 404t321.5 140q95 0 172.5 -32t137.5 -96v229h-306v163h306v116h411v-116zM833 534q0 125 -53 186.5t-134 61.5q-71 0 -119 -59t-48 -198
q0 -130 49.5 -190.5t122.5 -60.5q78 0 130 61t52 199z" />
    <glyph glyph-name="macron" unicode="&#xaf;" horiz-adv-x="1024" 
d="M-12 1701h1048v-102h-1048v102z" />
    <glyph glyph-name="periodcentered" unicode="&#xb7;" horiz-adv-x="683" 
d="M124 937h435v-408h-435v408z" />
    <glyph glyph-name="uni2074" unicode="&#x2074;" horiz-adv-x="811" 
d="M449 841h-408v189l418 461h214v-484h99v-166h-99v-121h-224v121zM449 1007v219l-204 -219h204z" />
    <glyph glyph-name="Abreve" unicode="&#x102;" horiz-adv-x="1593" 
d="M1052 242h-516l-71 -242h-463l551 1466h494l551 -1466h-474zM957 559l-162 527l-161 -527h323zM971 1862h165q-6 -95 -45 -159.5t-118 -103.5t-171 -39q-152 0 -243 79.5t-106 222.5h172q20 -58 57 -82.5t111 -24.5q87 0 124.5 24.5t53.5 82.5z" />
    <glyph glyph-name="abreve" unicode="&#x103;" 
d="M494 718l-389 41q22 102 63.5 160.5t119.5 101.5q56 31 154 48t212 17q183 0 294 -20.5t185 -85.5q52 -45 82 -127.5t30 -157.5v-469q0 -75 9.5 -117.5t41.5 -108.5h-382q-23 41 -30 62.5t-14 67.5q-80 -77 -159 -110q-108 -44 -251 -44q-190 0 -288.5 88t-98.5 217
q0 121 71 199t262 116q229 46 297 64.5t144 48.5q0 75 -31 105t-109 30q-100 0 -150 -32q-39 -25 -63 -94zM847 504q-84 -30 -175 -53q-124 -33 -157 -65q-34 -33 -34 -75q0 -48 33.5 -78.5t98.5 -30.5q68 0 126.5 33t83 80.5t24.5 123.5v65zM861 1491h165
q-6 -95 -45 -159.5t-118 -103.5t-171 -39q-152 0 -243 79.5t-106 222.5h172q20 -58 57 -82.5t111 -24.5q87 0 124.5 24.5t53.5 82.5z" />
    <glyph glyph-name="Aogonek" unicode="&#x104;" horiz-adv-x="1593" 
d="M1052 242h-516l-71 -242h-463l551 1466h494l551 -1466h-474zM957 559l-162 527l-161 -527h323zM1223 26h169q-20 -87 -20 -144q0 -76 37 -115t103 -39q47 0 128 26v-155q-124 -46 -212 -46q-120 0 -186.5 64t-66.5 170q0 89 48 239z" />
    <glyph glyph-name="aogonek" unicode="&#x105;" 
d="M494 718l-389 41q22 102 63.5 160.5t119.5 101.5q56 31 154 48t212 17q183 0 294 -20.5t185 -85.5q52 -45 82 -127.5t30 -157.5v-469q0 -75 9.5 -117.5t41.5 -108.5h-382q-23 41 -30 62.5t-14 67.5q-80 -77 -159 -110q-108 -44 -251 -44q-190 0 -288.5 88t-98.5 217
q0 121 71 199t262 116q229 46 297 64.5t144 48.5q0 75 -31 105t-109 30q-100 0 -150 -32q-39 -25 -63 -94zM847 504q-84 -30 -175 -53q-124 -33 -157 -65q-34 -33 -34 -75q0 -48 33.5 -78.5t98.5 -30.5q68 0 126.5 33t83 80.5t24.5 123.5v65zM920 26h169q-20 -87 -20 -144
q0 -76 37 -115t103 -39q47 0 128 26v-155q-124 -46 -212 -46q-120 0 -186.5 64t-66.5 170q0 89 48 239z" />
    <glyph glyph-name="Dcaron" unicode="&#x10e;" horiz-adv-x="1593" 
d="M156 1466h673q199 0 321.5 -54t202.5 -155t116 -235t36 -284q0 -235 -53.5 -364.5t-148.5 -217t-204 -116.5q-149 -40 -270 -40h-673v1466zM609 1134v-801h111q142 0 202 31.5t94 110t34 254.5q0 233 -76 319t-252 86h-113zM916 1562h-288l-222 286h247l122 -153l122 153
h249z" />
    <glyph glyph-name="dcaron" unicode="&#x10f;" horiz-adv-x="1728" 
d="M1241 1466v-1466h-381v157q-80 -100 -146 -135q-88 -46 -196 -46q-217 0 -331.5 165t-114.5 401q0 264 126.5 404t321.5 140q95 0 172.5 -32t137.5 -96v508h411zM833 534q0 125 -53 186.5t-134 61.5q-71 0 -119 -59t-48 -198q0 -130 49.5 -190.5t122.5 -60.5q78 0 130 61
t52 199zM1423 1466h270v-196q0 -108 -44.5 -170.5t-154.5 -110.5l-71 104q121 54 122 137h-122v236z" />
    <glyph glyph-name="Dcroat" unicode="&#x110;" horiz-adv-x="1593" 
d="M156 1466h673q199 0 321.5 -54t202.5 -154.5t115.5 -234.5t35.5 -284q0 -241 -55 -370.5t-149 -215t-204 -114.5q-147 -39 -267 -39h-673v622h-154v221h154v623zM609 1134v-291h220v-221h-220v-289h111q142 0 202 31.5t94 110t34 254.5q0 233 -76.5 319t-252.5 86h-112z
" />
    <glyph glyph-name="Eogonek" unicode="&#x118;" horiz-adv-x="1479" 
d="M149 1466h1214v-313h-760v-233h705v-299h-705v-289h782v-332h-1236v1466zM923 26h169q-20 -87 -20 -144q0 -76 37 -115t103 -39q47 0 128 26v-155q-124 -46 -212 -46q-120 0 -186.5 64t-66.5 170q0 89 48 239z" />
    <glyph glyph-name="eogonek" unicode="&#x119;" 
d="M1302 430h-816q11 -98 53 -146q59 -69 154 -69q60 0 114 30q33 19 71 67l401 -37q-92 -160 -222 -229.5t-373 -69.5q-211 0 -332 59.5t-200.5 189t-79.5 304.5q0 249 159.5 403t440.5 154q228 0 360 -69t201 -200t69 -341v-46zM888 625q-12 118 -63.5 169t-135.5 51
q-97 0 -155 -77q-37 -48 -47 -143h401zM622 26h169q-20 -87 -20 -144q0 -76 37 -115t103 -39q47 0 128 26v-155q-124 -46 -212 -46q-120 0 -186.5 64t-66.5 170q0 89 48 239z" />
    <glyph glyph-name="Ecaron" unicode="&#x11a;" horiz-adv-x="1479" 
d="M149 1466h1214v-313h-760v-233h705v-299h-705v-289h782v-332h-1236v1466zM913 1562h-288l-222 286h247l122 -153l122 153h249z" />
    <glyph glyph-name="ecaron" unicode="&#x11b;" 
d="M1302 430h-816q11 -98 53 -146q59 -69 154 -69q60 0 114 30q33 19 71 67l401 -37q-92 -160 -222 -229.5t-373 -69.5q-211 0 -332 59.5t-200.5 189t-79.5 304.5q0 249 159.5 403t440.5 154q228 0 360 -69t201 -200t69 -341v-46zM888 625q-12 118 -63.5 169t-135.5 51
q-97 0 -155 -77q-37 -48 -47 -143h401zM824 1192h-288l-222 286h247l122 -153l122 153h249z" />
    <glyph glyph-name="IJ" unicode="&#x132;" horiz-adv-x="2105" 
d="M1952 672q0 -162 -16.5 -271.5t-74 -201.5t-149 -144.5t-171 -66t-157.5 -13.5q-313 0 -454.5 135.5t-157.5 385.5l432 59q0 -240 148 -240q70 0 108.5 51.5t38.5 196.5v903h453v-794zM625 0h-453v1466h453v-1466z" />
    <glyph glyph-name="ij" unicode="&#x133;" horiz-adv-x="1368" 
d="M1231 1188h-408v278h408v-278zM545 1188h-408v278h408v-278zM1231 33q0 -147 -17.5 -239.5t-95 -158t-241.5 -65.5q-132 0 -293 35l61 295q56 -11 72 -11q58 0 82 40.5t24 138.5v993h408v-1028zM545 0h-408v1061h408v-1061z" />
    <glyph glyph-name="Lacute" unicode="&#x139;" 
d="M150 1466h453v-1105h707v-361h-1160v1466zM720 1862h350l-323 -299h-195z" />
    <glyph glyph-name="lacute" unicode="&#x13a;" horiz-adv-x="682" 
d="M137 1466h408v-1466h-408v1466zM348 1862h350l-323 -299h-195z" />
    <glyph glyph-name="Lcaron" unicode="&#x13d;" 
d="M150 1466h453v-1105h707v-361h-1160v1466zM956 1466h270v-196q0 -108 -44.5 -170.5t-154.5 -110.5l-71 104q121 54 122 137h-122v236z" />
    <glyph glyph-name="lcaron" unicode="&#x13e;" horiz-adv-x="1024" 
d="M137 1466h408v-1466h-408v1466zM717 1466h270v-196q0 -108 -44.5 -170.5t-154.5 -110.5l-71 104q121 54 122 137h-122v236z" />
    <glyph glyph-name="Ldot" unicode="&#x13f;" 
d="M150 1466h453v-1105h707v-361h-1160v1466zM900 1068h314v-300h-314v300z" />
    <glyph glyph-name="ldot" unicode="&#x140;" horiz-adv-x="1094" 
d="M137 1466h408v-1466h-408v1466zM696 1068h314v-300h-314v300z" />
    <glyph glyph-name="Nacute" unicode="&#x143;" horiz-adv-x="1706" 
d="M153 1466h423l552 -811v811h427v-1466h-427l-549 805v-805h-426v1466zM842 1862h350l-323 -299h-195z" />
    <glyph glyph-name="nacute" unicode="&#x144;" 
d="M123 1062h379v-173q85 106 172 151.5t212 45.5q169 0 264.5 -100.5t95.5 -310.5v-675h-409v584q0 100 -37 141.5t-104 41.5q-74 0 -120 -56t-46 -201v-510h-407v1062zM677 1491h350l-323 -299h-195z" />
    <glyph glyph-name="Ncaron" unicode="&#x147;" horiz-adv-x="1706" 
d="M153 1466h423l552 -811v811h427v-1466h-427l-549 805v-805h-426v1466zM992 1562h-288l-222 286h247l122 -153l122 153h249z" />
    <glyph glyph-name="ncaron" unicode="&#x148;" 
d="M123 1062h379v-173q85 106 172 151.5t212 45.5q169 0 264.5 -100.5t95.5 -310.5v-675h-409v584q0 100 -37 141.5t-104 41.5q-74 0 -120 -56t-46 -201v-510h-407v1062zM827 1192h-288l-222 286h247l122 -153l122 153h249z" />
    <glyph glyph-name="napostrophe" unicode="&#x149;" horiz-adv-x="1757" 
d="M449 1169q0 -159 -70 -266t-229 -174l-97 129q84 38 135 91t54 151h-189v366h396v-297zM1638 0h-407v584q0 184 -144 184q-79 0 -122 -58.5t-43 -199.5v-510h-408v1061h381v-172h4q137 196 379 196q178 0 269 -105.5t91 -303.5v-676z" />
    <glyph glyph-name="Ohungarumlaut" unicode="&#x150;" horiz-adv-x="1706" 
d="M93 732q0 359 200 559t557 200q366 0 564 -196.5t198 -550.5q0 -257 -86.5 -421.5t-250 -256t-407.5 -91.5q-248 0 -410.5 79t-263.5 250t-101 428zM546 730q0 -222 82.5 -319t224.5 -97q146 0 226 95t80 341q0 207 -83.5 302.5t-226.5 95.5q-137 0 -220 -97t-83 -321z
M634 1863h325l-296 -295h-197zM1031 1863h328l-302 -295h-191z" />
    <glyph glyph-name="ohungarumlaut" unicode="&#x151;" 
d="M73 528q0 243 164 400.5t443 157.5q319 0 482 -185q131 -149 131 -367q0 -245 -162.5 -401.5t-449.5 -156.5q-256 0 -414 130q-194 161 -194 422zM481 529q0 -142 57.5 -210t144.5 -68q88 0 144.5 67t56.5 215q0 138 -57 205.5t-141 67.5q-89 0 -147 -68.5t-58 -208.5z
M462 1491h325l-296 -295h-197zM859 1491h328l-302 -295h-191z" />
    <glyph glyph-name="Racute" unicode="&#x154;" horiz-adv-x="1593" 
d="M156 0v1466h755q210 0 321 -36t179 -133.5t68 -237.5q0 -122 -52 -210.5t-143 -143.5q-58 -35 -159 -58q81 -27 118 -54q25 -18 72.5 -77t63.5 -91l219 -425h-512l-242 448q-46 87 -82 113q-49 34 -111 34h-40v-595h-455zM611 872h191q31 0 120 20q45 9 73.5 46t28.5 85
q0 71 -45 109t-169 38h-199v-298zM823 1858h350l-323 -299h-195z" />
    <glyph glyph-name="racute" unicode="&#x155;" horiz-adv-x="909" 
d="M127 1062h381v-174q55 113 113.5 155.5t144.5 42.5q90 0 197 -56l-126 -290q-72 30 -114 30q-80 0 -124 -66q-63 -93 -63 -348v-356h-409v1062zM512 1491h350l-323 -299h-195z" />
    <glyph glyph-name="Rcaron" unicode="&#x158;" horiz-adv-x="1593" 
d="M156 0v1466h755q210 0 321 -36t179 -133.5t68 -237.5q0 -122 -52 -210.5t-143 -143.5q-58 -35 -159 -58q81 -27 118 -54q25 -18 72.5 -77t63.5 -91l219 -425h-512l-242 448q-46 87 -82 113q-49 34 -111 34h-40v-595h-455zM611 872h191q31 0 120 20q45 9 73.5 46t28.5 85
q0 71 -45 109t-169 38h-199v-298zM973 1562h-288l-222 286h247l122 -153l122 153h249z" />
    <glyph glyph-name="rcaron" unicode="&#x159;" horiz-adv-x="909" 
d="M127 1062h381v-174q55 113 113.5 155.5t144.5 42.5q90 0 197 -56l-126 -290q-72 30 -114 30q-80 0 -124 -66q-63 -93 -63 -348v-356h-409v1062zM667 1192h-288l-222 286h247l122 -153l122 153h249z" />
    <glyph glyph-name="Sacute" unicode="&#x15a;" horiz-adv-x="1479" 
d="M71 485l431 27q14 -105 57 -160q70 -89 200 -89q97 0 149.5 45.5t52.5 105.5q0 57 -50 102t-232 85q-298 67 -425 178q-128 111 -128 283q0 113 65.5 213.5t197 158t360.5 57.5q281 0 428.5 -104.5t175.5 -332.5l-427 -25q-17 99 -71.5 144t-150.5 45q-79 0 -119 -33.5
t-40 -81.5q0 -35 33 -63q32 -29 152 -54q297 -64 425.5 -129.5t187 -162.5t58.5 -217q0 -141 -78 -260t-218 -180.5t-353 -61.5q-374 0 -518 144t-163 366zM732 1862h350l-323 -299h-195z" />
    <glyph glyph-name="sacute" unicode="&#x15b;" horiz-adv-x="1251" 
d="M51 294l404 38q25 -72 70 -103t120 -31q82 0 127 35q35 26 35 65q0 44 -46 68q-33 17 -175 42q-212 37 -294.5 68.5t-139 106.5t-56.5 171q0 105 61 181t168 113.5t287 37.5q190 0 280.5 -29t151 -90t100.5 -165l-386 -38q-15 51 -50 75q-48 32 -116 32
q-69 0 -100.5 -24.5t-31.5 -59.5q0 -39 40 -59t174 -36q203 -23 302 -64t151.5 -117t52.5 -167q0 -92 -55.5 -179t-175 -138.5t-325.5 -51.5q-291 0 -414.5 83t-158.5 236zM600 1491h350l-323 -299h-195z" />
    <glyph glyph-name="Tcommaaccent" unicode="&#x162;" horiz-adv-x="1479" 
d="M47 1466h1377v-362h-462v-1104h-453v1104h-462v362zM515 -165l30 118q94 23 176 23q171 0 236 -58t65 -137q0 -48 -29.5 -99t-105.5 -82t-202 -31q-114 0 -268 26v123q104 -20 221 -20q86 0 116.5 23t30.5 60q0 29 -25 50t-78 21q-71 0 -167 -17z" />
    <glyph glyph-name="tcommaaccent" unicode="&#x163;" horiz-adv-x="909" 
d="M614 1466v-404h224v-297h-224v-377q0 -68 13 -90q20 -34 70 -34q45 0 126 26l30 -281q-151 -33 -282 -33q-152 0 -224 39t-106.5 118.5t-34.5 257.5v374h-150v297h150v195zM336 -165l30 118q94 23 176 23q171 0 236 -58t65 -137q0 -48 -29.5 -99t-105.5 -82t-202 -31
q-114 0 -268 26v123q104 -20 221 -20q86 0 116.5 23t30.5 60q0 29 -25 50t-78 21q-71 0 -167 -17z" />
    <glyph glyph-name="Tcaron" unicode="&#x164;" horiz-adv-x="1479" 
d="M47 1466h1377v-362h-462v-1104h-453v1104h-462v362zM884 1562h-288l-222 286h247l122 -153l122 153h249z" />
    <glyph glyph-name="tcaron" unicode="&#x165;" horiz-adv-x="1280" 
d="M614 1466v-404h224v-297h-224v-377q0 -68 13 -90q20 -34 70 -34q45 0 126 26l30 -281q-151 -33 -282 -33q-152 0 -224 39t-106.5 118.5t-34.5 257.5v374h-150v297h150v195zM966 1466h270v-196q0 -108 -44.5 -170.5t-154.5 -110.5l-71 104q121 54 122 137h-122v236z" />
    <glyph glyph-name="Uring" unicode="&#x16e;" horiz-adv-x="1706" 
d="M1104 1466h452v-874q0 -130 -40.5 -245.5t-127 -202t-181.5 -121.5q-132 -49 -317 -49q-107 0 -233.5 15t-211.5 59.5t-155.5 126.5t-96.5 169q-42 140 -42 248v874h452v-895q0 -120 66.5 -187.5t184.5 -67.5q117 0 183.5 66.5t66.5 188.5v895zM1094 1773
q0 -100 -70.5 -170t-169.5 -70q-100 0 -170.5 70t-70.5 170t70.5 170.5t170.5 70.5q99 0 169.5 -70.5t70.5 -170.5zM956 1774q0 43 -30 73t-73 30t-73 -30t-30 -73t30 -73t73 -30t73 30t30 73z" />
    <glyph glyph-name="uring" unicode="&#x16f;" 
d="M1242 0h-380v172q-85 -106 -171.5 -151t-212.5 -45q-168 0 -263.5 100.5t-95.5 309.5v676h409v-584q0 -100 37 -142t104 -42q73 0 119.5 56t46.5 201v511h407v-1062zM923 1403q0 -100 -70.5 -170t-169.5 -70q-100 0 -170.5 70t-70.5 170t70.5 170.5t170.5 70.5
q99 0 169.5 -70.5t70.5 -170.5zM785 1404q0 43 -30 73t-73 30t-73 -30t-30 -73t30 -73t73 -30t73 30t30 73z" />
    <glyph glyph-name="Uhungarumlaut" unicode="&#x170;" horiz-adv-x="1706" 
d="M1104 1466h452v-874q0 -130 -40.5 -245.5t-127 -202t-181.5 -121.5q-132 -49 -317 -49q-107 0 -233.5 15t-211.5 59.5t-155.5 126.5t-96.5 169q-42 140 -42 248v874h452v-895q0 -120 66.5 -187.5t184.5 -67.5q117 0 183.5 66.5t66.5 188.5v895zM721 1861h325l-296 -295
h-197zM1118 1861h328l-302 -295h-191z" />
    <glyph glyph-name="uhungarumlaut" unicode="&#x171;" 
d="M1242 0h-380v172q-85 -106 -171.5 -151t-212.5 -45q-168 0 -263.5 100.5t-95.5 309.5v676h409v-584q0 -100 37 -142t104 -42q73 0 119.5 56t46.5 201v511h407v-1062zM458 1491h325l-296 -295h-197zM855 1491h328l-302 -295h-191z" />
    <glyph glyph-name="Zacute" unicode="&#x179;" horiz-adv-x="1479" 
d="M113 1466h1282v-293l-822 -858h852v-315h-1391v304l813 849h-734v313zM726 1862h350l-323 -299h-195z" />
    <glyph glyph-name="zacute" unicode="&#x17a;" horiz-adv-x="1139" 
d="M77 1062h985v-238l-536 -546h569v-278h-1058v264l508 520h-468v278zM564 1491h350l-323 -299h-195z" />
    <glyph glyph-name="Zdotaccent" unicode="&#x17b;" horiz-adv-x="1479" 
d="M113 1466h1282v-293l-822 -858h852v-315h-1391v304l813 849h-734v313zM609 1855h314v-300h-314v300z" />
    <glyph glyph-name="zdotaccent" unicode="&#x17c;" horiz-adv-x="1139" 
d="M77 1062h985v-238l-536 -546h569v-278h-1058v264l508 520h-468v278zM416 1496h314v-300h-314v300z" />
    <glyph glyph-name="glyph305" horiz-adv-x="683" 
 />
    <glyph glyph-name="glyph306" horiz-adv-x="683" 
 />
    <glyph glyph-name="glyph307" horiz-adv-x="683" 
 />
    <glyph glyph-name="glyph308" horiz-adv-x="683" 
 />
    <glyph glyph-name="glyph309" horiz-adv-x="683" 
 />
    <glyph glyph-name="glyph310" horiz-adv-x="683" 
 />
    <glyph glyph-name="glyph311" horiz-adv-x="683" 
 />
    <glyph glyph-name="glyph312" horiz-adv-x="683" 
 />
    <glyph glyph-name="glyph313" horiz-adv-x="683" 
 />
    <glyph glyph-name="underscoredbl" unicode="&#x2017;" horiz-adv-x="1024" 
d="M1036 -154h-1048v102h1048v-102zM1036 -358h-1048v102h1048v-102z" />
    <glyph glyph-name="minute" unicode="&#x2032;" horiz-adv-x="623" 
d="M520 1491l-201 -401h-194l45 401h350z" />
    <glyph glyph-name="second" unicode="&#x2033;" horiz-adv-x="1073" 
d="M973 1491l-201 -401h-194l45 401h350zM514 1491l-201 -401h-194l45 401h350z" />
    <glyph glyph-name="exclamdbl" unicode="&#x203c;" horiz-adv-x="1237" 
d="M1116 1133l-84 -672h-266l-84 672v333h434v-333zM559 1133l-84 -672h-266l-84 672v333h434v-333zM1102 0h-406v358h406v-358zM545 0h-406v358h406v-358z" />
    <glyph glyph-name="uni207F" unicode="&#x207f;" horiz-adv-x="893" 
d="M831 745h-274v396q0 127 -96 127q-115 0 -115 -178v-345h-276v721h256v-118h8q89 135 256 135q119 0 180 -72.5t61 -206.5v-459z" />
    <glyph glyph-name="peseta" unicode="&#x20a7;" horiz-adv-x="3527" 
d="M148 1466h753q246 0 368.5 -117t122.5 -333q0 -222 -133.5 -347t-407.5 -125h-248v-544h-455v1466zM603 841h111q131 0 184 45.5t53 116.5q0 69 -46 117t-173 48h-129v-327zM2014 1466v-404h224v-297h-224v-377q0 -68 13 -90q20 -34 70 -34q45 0 126 26l30 -281
q-151 -33 -282 -33q-152 0 -224 39t-106.5 118.5t-34.5 257.5v374h-150v297h150v195zM2327 294l404 38q25 -72 70 -103t120 -31q82 0 127 35q35 26 35 65q0 44 -46 68q-33 17 -175 42q-212 37 -294.5 68.5t-139 106.5t-56.5 171q0 105 61 181t168 113.5t287 37.5
q190 0 280.5 -29t151 -90t100.5 -165l-386 -38q-15 51 -50 75q-48 32 -116 32q-69 0 -100.5 -24.5t-31.5 -59.5q0 -39 40 -59t174 -36q203 -23 302 -64t151.5 -117t52.5 -167q0 -92 -55.5 -179t-175 -138.5t-325.5 -51.5q-291 0 -414.5 83t-158.5 236z" />
    <glyph glyph-name="afii61248" unicode="&#x2105;" horiz-adv-x="2048" 
d="M1554 1491l-845 -1565h-209l843 1565h211zM877 963q-34 -114 -127.5 -178t-229.5 -64q-422 0 -422 385t418 385q301 0 361 -236l-242 -43q-22 86 -119 86q-64 0 -100.5 -51.5t-36.5 -140.5q0 -188 137 -188q103 0 133 94zM1552 698q192 0 295 -109.5t103 -275.5
q0 -165 -103 -275t-295 -110t-294.5 109.5t-102.5 275.5t102.5 275.5t294.5 109.5zM1552 117q62 0 89.5 45t27.5 151q0 197 -117 197q-116 0 -116 -197q0 -106 27.5 -151t88.5 -45z" />
    <glyph glyph-name="afii61289" unicode="&#x2113;" horiz-adv-x="1201" 
d="M623 542q-56 -292 -56 -372q0 -55 29 -55q38 0 83 96q20 42 47 42q38 0 38 -45q0 -81 -68.5 -160.5t-161.5 -79.5q-76 0 -121 64.5t-45 235.5q0 34 3 91q-52 -55 -68 -55q-13 0 -26.5 15.5t-13.5 41.5t27 57q68 76 97 112q61 353 166.5 603t264.5 250q80 0 123 -55.5
t43 -137.5q0 -288 -361 -648zM653 729q90 100 147.5 224t57.5 219q0 74 -35 74q-40 0 -82 -131t-88 -386z" />
    <glyph glyph-name="arrowleft" unicode="&#x2190;" horiz-adv-x="2048" 
d="M492 876h76q-81 -170 -195 -309h1595v-101h-1595q102 -102 198 -309h-78q-223 253 -414 341v45q177 71 413 333z" />
    <glyph glyph-name="arrowup" unicode="&#x2191;" horiz-adv-x="1024" 
d="M153 1050q262 236 333 413h46q87 -192 340 -415v-77q-207 96 -309 197v-1597h-101v1597q-139 -114 -309 -195v77z" />
    <glyph glyph-name="arrowright" unicode="&#x2192;" horiz-adv-x="2048" 
d="M1555 876q237 -262 413 -333v-45q-191 -88 -414 -341h-77q95 207 197 309h-1595v101h1595q-114 139 -195 309h76z" />
    <glyph glyph-name="arrowdown" unicode="&#x2193;" horiz-adv-x="1024" 
d="M153 -16v76q170 -81 309 -195v1598h101v-1598q102 102 309 197v-77q-253 -223 -340 -414h-46q-71 176 -333 413z" />
    <glyph glyph-name="arrowboth" unicode="&#x2194;" horiz-adv-x="2048" 
d="M1968 540v-45q-181 -79 -406 -337h-80q69 172 194 311h-1305q125 -139 194 -311h-80q-224 258 -406 337v45q182 79 406 338h80q-69 -172 -194 -311h1305q-125 139 -194 311h80q225 -259 406 -338z" />
    <glyph glyph-name="arrowupdn" unicode="&#x2195;" horiz-adv-x="1024" 
d="M489 1463h45q79 -182 337 -407v-80q-171 69 -311 195v-1306q140 126 311 194v-79q-258 -225 -337 -407h-45q-79 182 -337 407v79q171 -68 311 -194v1306q-140 -126 -311 -195v80q258 225 337 407z" />
    <glyph glyph-name="arrowupdnbse" unicode="&#x21a8;" horiz-adv-x="1024" 
d="M489 1463h45q79 -182 337 -407v-80q-171 69 -311 195v-1306q140 126 311 194v-79q-258 -225 -337 -407h-45q-79 182 -337 407v79q171 -68 311 -194v1306q-140 -126 -311 -195v80q258 225 337 407zM154 -522h717v-98h-717v98z" />
    <glyph glyph-name="orthogonal" unicode="&#x221f;" horiz-adv-x="2005" 
d="M362 1279h100v-1179h1181v-100h-1281v1279z" />
    <glyph glyph-name="intersection" unicode="&#x2229;" horiz-adv-x="1472" 
d="M302 0h-110v560q1 118 2.5 227.5t19.5 192t59.5 151t114.5 128.5t163.5 92.5t184.5 32.5q144 0 268.5 -70.5t186 -168t76 -206t14.5 -379.5v-560h-109v566q0 232 -12 333.5t-60 183t-149.5 138.5t-214.5 57q-114 0 -215.5 -58t-148 -137t-58.5 -181.5t-12 -335.5v-566z
" />
    <glyph glyph-name="equivalence" unicode="&#x2261;" horiz-adv-x="1229" 
d="M1102 1000v-123h-975v123h975zM1102 759v-123h-975v123h975zM1102 517v-123h-975v123h975z" />
    <glyph glyph-name="H22073" unicode="&#x25a1;" horiz-adv-x="1237" 
d="M146 944h944v-944h-944v944zM222 868v-792h792v792h-792z" />
    <glyph glyph-name="H18543" unicode="&#x25aa;" horiz-adv-x="726" 
d="M594 909v-464h-463v463z" />
    <glyph glyph-name="H18551" unicode="&#x25ab;" horiz-adv-x="726" 
d="M594 909v-464h-463v463zM518 833l-311 -1v-311h311v312z" />
    <glyph glyph-name="H18533" unicode="&#x25cf;" horiz-adv-x="1237" 
d="M619 1018q181 0 310.5 -129t129.5 -311t-129 -311.5t-311 -129.5t-311.5 129.5t-129.5 311.5q0 189 131.5 314.5t309.5 125.5z" />
    <glyph glyph-name="openbullet" unicode="&#x25e6;" horiz-adv-x="726" 
d="M363 928q101 0 176 -72t75 -179q0 -104 -73.5 -177.5t-177.5 -73.5t-177.5 73.5t-73.5 177.5t74 177.5t177 73.5zM363 852q-71 0 -123 -50t-52 -125q0 -73 51.5 -124t123.5 -51t123.5 51t51.5 124q0 74 -52 124.5t-123 50.5z" />
    <glyph glyph-name="glyph337" horiz-adv-x="682" 
d="M206 -121h270v-196q0 -108 -44.5 -170.5t-154.5 -110.5l-71 104q121 54 122 137h-122v236z" />
    <glyph glyph-name="Amacron" unicode="&#x100;" horiz-adv-x="1593" 
d="M1052 242h-516l-71 -242h-463l551 1466h494l551 -1466h-474zM957 559l-162 527l-161 -527h323zM470 1786h647v-217h-647v217z" />
    <glyph glyph-name="amacron" unicode="&#x101;" 
d="M494 718l-389 41q22 102 63.5 160.5t119.5 101.5q56 31 154 48t212 17q183 0 294 -20.5t185 -85.5q52 -45 82 -127.5t30 -157.5v-469q0 -75 9.5 -117.5t41.5 -108.5h-382q-23 41 -30 62.5t-14 67.5q-80 -77 -159 -110q-108 -44 -251 -44q-190 0 -288.5 88t-98.5 217
q0 121 71 199t262 116q229 46 297 64.5t144 48.5q0 75 -31 105t-109 30q-100 0 -150 -32q-39 -25 -63 -94zM847 504q-84 -30 -175 -53q-124 -33 -157 -65q-34 -33 -34 -75q0 -48 33.5 -78.5t98.5 -30.5q68 0 126.5 33t83 80.5t24.5 123.5v65zM362 1446h647v-217h-647v217z
" />
    <glyph glyph-name="Ccircumflex" unicode="&#x108;" horiz-adv-x="1593" 
d="M1126 599l397 -120q-40 -167 -126 -279t-213.5 -169t-324.5 -57q-239 0 -390.5 69.5t-261.5 244.5t-110 448q0 364 193.5 559.5t547.5 195.5q277 0 435.5 -112t235.5 -344l-400 -89q-21 67 -44 98q-38 52 -93 80t-123 28q-154 0 -236 -124q-62 -92 -62 -289
q0 -244 74 -334.5t208 -90.5q130 0 196.5 73t96.5 212zM681 1858h289l222 -286h-248l-122 153l-122 -153h-248z" />
    <glyph glyph-name="ccircumflex" unicode="&#x109;" 
d="M915 415l387 -44q-32 -121 -105 -209.5t-186.5 -137.5t-288.5 -49q-169 0 -281.5 31.5t-193.5 102t-127 165.5t-46 252q0 164 56 273q41 80 112 143.5t146 94.5q119 49 305 49q260 0 396.5 -93t191.5 -272l-383 -51q-18 68 -65.5 102.5t-127.5 34.5q-101 0 -163.5 -72.5
t-62.5 -219.5q0 -131 62 -199t158 -68q80 0 134.5 41t81.5 126zM561 1478h289l222 -286h-248l-122 153l-122 -153h-248z" />
    <glyph glyph-name="Cdotaccent" unicode="&#x10a;" horiz-adv-x="1593" 
d="M1126 599l397 -120q-40 -167 -126 -279t-213.5 -169t-324.5 -57q-239 0 -390.5 69.5t-261.5 244.5t-110 448q0 364 193.5 559.5t547.5 195.5q277 0 435.5 -112t235.5 -344l-400 -89q-21 67 -44 98q-38 52 -93 80t-123 28q-154 0 -236 -124q-62 -92 -62 -289
q0 -244 74 -334.5t208 -90.5q130 0 196.5 73t96.5 212zM660 1868h314v-300h-314v300z" />
    <glyph glyph-name="cdotaccent" unicode="&#x10b;" 
d="M915 415l387 -44q-32 -121 -105 -209.5t-186.5 -137.5t-288.5 -49q-169 0 -281.5 31.5t-193.5 102t-127 165.5t-46 252q0 164 56 273q41 80 112 143.5t146 94.5q119 49 305 49q260 0 396.5 -93t191.5 -272l-383 -51q-18 68 -65.5 102.5t-127.5 34.5q-101 0 -163.5 -72.5
t-62.5 -219.5q0 -131 62 -199t158 -68q80 0 134.5 41t81.5 126zM536 1496h314v-300h-314v300z" />
    <glyph glyph-name="Emacron" unicode="&#x112;" horiz-adv-x="1479" 
d="M149 1466h1214v-313h-760v-233h705v-299h-705v-289h782v-332h-1236v1466zM450 1786h647v-217h-647v217z" />
    <glyph glyph-name="emacron" unicode="&#x113;" 
d="M1302 430h-816q11 -98 53 -146q59 -69 154 -69q60 0 114 30q33 19 71 67l401 -37q-92 -160 -222 -229.5t-373 -69.5q-211 0 -332 59.5t-200.5 189t-79.5 304.5q0 249 159.5 403t440.5 154q228 0 360 -69t201 -200t69 -341v-46zM888 625q-12 118 -63.5 169t-135.5 51
q-97 0 -155 -77q-37 -48 -47 -143h401zM378 1446h647v-217h-647v217z" />
    <glyph glyph-name="Ebreve" unicode="&#x114;" horiz-adv-x="1479" 
d="M149 1466h1214v-313h-760v-233h705v-299h-705v-289h782v-332h-1236v1466zM934 1871h165q-6 -95 -45 -159.5t-118 -103.5t-171 -39q-152 0 -243 79.5t-106 222.5h172q20 -58 57 -82.5t111 -24.5q87 0 124.5 24.5t53.5 82.5z" />
    <glyph glyph-name="ebreve" unicode="&#x115;" 
d="M1302 430h-816q11 -98 53 -146q59 -69 154 -69q60 0 114 30q33 19 71 67l401 -37q-92 -160 -222 -229.5t-373 -69.5q-211 0 -332 59.5t-200.5 189t-79.5 304.5q0 249 159.5 403t440.5 154q228 0 360 -69t201 -200t69 -341v-46zM888 625q-12 118 -63.5 169t-135.5 51
q-97 0 -155 -77q-37 -48 -47 -143h401zM846 1491h165q-6 -95 -45 -159.5t-118 -103.5t-171 -39q-152 0 -243 79.5t-106 222.5h172q20 -58 57 -82.5t111 -24.5q87 0 124.5 24.5t53.5 82.5z" />
    <glyph glyph-name="Edotaccent" unicode="&#x116;" horiz-adv-x="1479" 
d="M149 1466h1214v-313h-760v-233h705v-299h-705v-289h782v-332h-1236v1466zM616 1868h314v-300h-314v300z" />
    <glyph glyph-name="edotaccent" unicode="&#x117;" 
d="M1302 430h-816q11 -98 53 -146q59 -69 154 -69q60 0 114 30q33 19 71 67l401 -37q-92 -160 -222 -229.5t-373 -69.5q-211 0 -332 59.5t-200.5 189t-79.5 304.5q0 249 159.5 403t440.5 154q228 0 360 -69t201 -200t69 -341v-46zM888 625q-12 118 -63.5 169t-135.5 51
q-97 0 -155 -77q-37 -48 -47 -143h401zM536 1496h314v-300h-314v300z" />
    <glyph glyph-name="Gcircumflex" unicode="&#x11c;" horiz-adv-x="1706" 
d="M887 531v305h700v-625q-201 -137 -355.5 -186.5t-366.5 -49.5q-261 0 -425.5 89t-255 265t-90.5 404q0 240 99 417.5t290 269.5q149 71 401 71q243 0 363.5 -44t200 -136.5t119.5 -234.5l-437 -78q-27 83 -91.5 127t-164.5 44q-149 0 -237.5 -103.5t-88.5 -327.5
q0 -238 89.5 -340t249.5 -102q76 0 145 22t158 75v138h-303zM737 1858h289l222 -286h-248l-122 153l-122 -153h-248z" />
    <glyph glyph-name="gcircumflex" unicode="&#x11d;" 
d="M862 1062h381v-1003l1 -47q0 -100 -42.5 -190.5t-113 -146.5t-179 -81t-248.5 -25q-320 0 -439.5 96t-119.5 257q0 20 2 54l395 -45q15 -55 46 -76q45 -31 113 -31q88 0 131.5 47t43.5 164v161q-60 -71 -120 -103q-94 -50 -203 -50q-213 0 -344 186q-93 132 -93 349
q0 248 120 378t314 130q124 0 204.5 -42t150.5 -139v157zM479 547q0 -115 49 -170.5t129 -55.5q76 0 127.5 57.5t51.5 173.5t-54 177.5t-132 61.5t-124.5 -56.5t-46.5 -187.5zM541 1478h289l222 -286h-248l-122 153l-122 -153h-248z" />
    <glyph glyph-name="Gdotaccent" unicode="&#x120;" horiz-adv-x="1706" 
d="M887 531v305h700v-625q-201 -137 -355.5 -186.5t-366.5 -49.5q-261 0 -425.5 89t-255 265t-90.5 404q0 240 99 417.5t290 269.5q149 71 401 71q243 0 363.5 -44t200 -136.5t119.5 -234.5l-437 -78q-27 83 -91.5 127t-164.5 44q-149 0 -237.5 -103.5t-88.5 -327.5
q0 -238 89.5 -340t249.5 -102q76 0 145 22t158 75v138h-303zM720 1868h314v-300h-314v300z" />
    <glyph glyph-name="gdotaccent" unicode="&#x121;" 
d="M862 1062h381v-1003l1 -47q0 -100 -42.5 -190.5t-113 -146.5t-179 -81t-248.5 -25q-320 0 -439.5 96t-119.5 257q0 20 2 54l395 -45q15 -55 46 -76q45 -31 113 -31q88 0 131.5 47t43.5 164v161q-60 -71 -120 -103q-94 -50 -203 -50q-213 0 -344 186q-93 132 -93 349
q0 248 120 378t314 130q124 0 204.5 -42t150.5 -139v157zM479 547q0 -115 49 -170.5t129 -55.5q76 0 127.5 57.5t51.5 173.5t-54 177.5t-132 61.5t-124.5 -56.5t-46.5 -187.5zM524 1496h314v-300h-314v300z" />
    <glyph glyph-name="Gcommaaccent" unicode="&#x122;" horiz-adv-x="1706" 
d="M887 531v305h700v-625q-201 -137 -355.5 -186.5t-366.5 -49.5q-261 0 -425.5 89t-255 265t-90.5 404q0 240 99 417.5t290 269.5q149 71 401 71q243 0 363.5 -44t200 -136.5t119.5 -234.5l-437 -78q-27 83 -91.5 127t-164.5 44q-149 0 -237.5 -103.5t-88.5 -327.5
q0 -238 89.5 -340t249.5 -102q76 0 145 22t158 75v138h-303zM708 -165l30 118q94 23 176 23q171 0 236 -58t65 -137q0 -48 -29.5 -99t-105.5 -82t-202 -31q-114 0 -268 26v123q104 -20 221 -20q86 0 116.5 23t30.5 60q0 29 -25 50t-78 21q-71 0 -167 -17z" />
    <glyph glyph-name="gcommaaccent" unicode="&#x123;" 
d="M862 1062h381v-1003l1 -47q0 -100 -42.5 -190.5t-113 -146.5t-179 -81t-248.5 -25q-320 0 -439.5 96t-119.5 257q0 20 2 54l395 -45q15 -55 46 -76q45 -31 113 -31q88 0 131.5 47t43.5 164v161q-60 -71 -120 -103q-94 -50 -203 -50q-213 0 -344 186q-93 132 -93 349
q0 248 120 378t314 130q124 0 204.5 -42t150.5 -139v157zM479 547q0 -115 49 -170.5t129 -55.5q76 0 127.5 57.5t51.5 173.5t-54 177.5t-132 61.5t-124.5 -56.5t-46.5 -187.5zM831 1193h-270v196q0 108 44.5 170.5t154.5 110.5l71 -104q-121 -54 -122 -137h122v-236z" />
    <glyph glyph-name="Hcircumflex" unicode="&#x124;" horiz-adv-x="1706" 
d="M152 1466h453v-513h495v513h455v-1466h-455v593h-495v-593h-453v1466zM713 1858h289l222 -286h-248l-122 153l-122 -153h-248z" />
    <glyph glyph-name="hcircumflex" unicode="&#x125;" 
d="M123 1466h407v-540q83 86 165 123t194 37q166 0 261.5 -101t95.5 -310v-675h-409v584q0 100 -37 141.5t-104 41.5q-74 0 -120 -56t-46 -201v-510h-407v1466zM545 1854h289l222 -286h-248l-122 153l-122 -153h-248z" />
    <glyph glyph-name="Hbar" unicode="&#x126;" horiz-adv-x="1706" 
d="M1688 1102h-134v-1102h-452v592h-498v-592h-452v1102h-134v221h134v143h452v-143h498v143h452v-143h134v-221zM1102 952v150h-498v-150h498z" />
    <glyph glyph-name="hbar" unicode="&#x127;" 
d="M1247 0h-407v584q0 184 -144 184q-79 0 -122.5 -58.5t-43.5 -199.5v-510h-407v1186h-103v186h103v94h407v-94h261v-186h-261v-260q144 159 361 159q176 0 266 -106.5t90 -302.5v-676z" />
    <glyph glyph-name="Itilde" unicode="&#x128;" horiz-adv-x="797" 
d="M168 1466h454v-1466h-454v1466zM607 1846h158q1 -26 1 -45q0 -111 -56 -172t-144 -61q-64 0 -194 53q-79 32 -109 32q-29 0 -45 -18t-17 -64h-156q-1 24 -1 42q0 107 59 170t140 63q35 0 66 -8t114.5 -43t121.5 -35q27 0 43.5 18.5t18.5 67.5z" />
    <glyph glyph-name="itilde" unicode="&#x129;" horiz-adv-x="682" 
d="M138 1062h407v-1062h-407v1062zM555 1466h158q1 -26 1 -45q0 -111 -56 -172t-144 -61q-64 0 -194 53q-79 32 -109 32q-29 0 -45 -18t-17 -64h-156q-1 24 -1 42q0 107 59 170t140 63q35 0 66 -8t114.5 -43t121.5 -35q27 0 43.5 18.5t18.5 67.5z" />
    <glyph glyph-name="Imacron" unicode="&#x12a;" horiz-adv-x="797" 
d="M168 1466h454v-1466h-454v1466zM78 1786h647v-217h-647v217z" />
    <glyph glyph-name="imacron" unicode="&#x12b;" horiz-adv-x="682" 
d="M138 1062h407v-1062h-407v1062zM18 1446h647v-217h-647v217z" />
    <glyph glyph-name="Ibreve" unicode="&#x12c;" horiz-adv-x="797" 
d="M168 1466h454v-1466h-454v1466zM578 1875h165q-6 -95 -45 -159.5t-118 -103.5t-171 -39q-152 0 -243 79.5t-106 222.5h172q20 -58 57 -82.5t111 -24.5q87 0 124.5 24.5t53.5 82.5z" />
    <glyph glyph-name="ibreve" unicode="&#x12d;" horiz-adv-x="682" 
d="M138 1062h407v-1062h-407v1062zM518 1491h165q-6 -95 -45 -159.5t-118 -103.5t-171 -39q-152 0 -243 79.5t-106 222.5h172q20 -58 57 -82.5t111 -24.5q87 0 124.5 24.5t53.5 82.5z" />
    <glyph glyph-name="Iogonek" unicode="&#x12e;" horiz-adv-x="797" 
d="M698 -401q-113 -45 -211 -45q-118 0 -186 63t-68 170q0 87 41 213h-102v1466h453v-1466h-181q-12 -65 -12 -119q0 -153 139 -153q46 0 127 26v-155z" />
    <glyph glyph-name="iogonek" unicode="&#x12f;" horiz-adv-x="682" 
d="M616 -401q-113 -45 -210 -45q-119 0 -186.5 63t-67.5 170q0 87 41 213h-56v1061h408v-1061h-183q-12 -65 -12 -119q0 -153 139 -153q46 0 127 26v-155zM138 1466h407v-277h-407v277z" />
    <glyph glyph-name="Jcircumflex" unicode="&#x134;" 
d="M760 1466h454v-797q0 -251 -44.5 -382t-179 -222t-344.5 -91q-222 0 -344 60t-188.5 175.5t-78.5 285.5l433 59q1 -97 17 -144t54 -76q26 -19 74 -19q76 0 111.5 56.5t35.5 190.5v904zM557 1854h289l222 -286h-248l-122 153l-122 -153h-248z" />
    <glyph glyph-name="jcircumflex" unicode="&#x135;" horiz-adv-x="682" 
d="M707 1192h-248l-121 154l-123 -154h-248l230 287h288zM139 1062h408v-1030q0 -197 -28.5 -279t-105.5 -133t-220 -51q-118 0 -293 35l61 296q49 -10 72 -10q52 0 79 35.5t27 141.5v995z" />
    <glyph glyph-name="Kcommaaccent" unicode="&#x136;" horiz-adv-x="1706" 
d="M152 1466h453v-554l475 554h602l-534 -553l558 -913h-558l-309 603l-234 -245v-358h-453v1466zM746 -121h270v-196q0 -108 -44.5 -170.5t-154.5 -110.5l-71 104q121 54 122 137h-122v236z" />
    <glyph glyph-name="kcommaaccent" unicode="&#x137;" 
d="M123 1466h416v-756l304 352h501l-381 -372l403 -690h-459l-215 426l-153 -150v-276h-416v1466zM574 -121h270v-196q0 -108 -44.5 -170.5t-154.5 -110.5l-71 104q121 54 122 137h-122v236z" />
    <glyph glyph-name="kgreenlandic" unicode="&#x138;" 
d="M1358 0h-459l-215 426l-154 -150v-276h-407v1061h407v-352l306 352h499l-379 -371z" />
    <glyph glyph-name="Lcommaaccent" unicode="&#x13b;" 
d="M150 1466h453v-1105h707v-361h-1160v1466zM532 -165l30 118q94 23 176 23q171 0 236 -58t65 -137q0 -48 -29.5 -99t-105.5 -82t-202 -31q-114 0 -268 26v123q104 -20 221 -20q86 0 116.5 23t30.5 60q0 29 -25 50t-78 21q-71 0 -167 -17z" />
    <glyph glyph-name="lcommaaccent" unicode="&#x13c;" horiz-adv-x="682" 
d="M137 1466h408v-1466h-408v1466zM116 -165l30 118q94 23 176 23q171 0 236 -58t65 -137q0 -48 -29.5 -99t-105.5 -82t-202 -31q-114 0 -268 26v123q104 -20 221 -20q86 0 116.5 23t30.5 60q0 29 -25 50t-78 21q-71 0 -167 -17z" />
    <glyph glyph-name="Ncommaaccent" unicode="&#x145;" horiz-adv-x="1706" 
d="M153 1466h423l552 -811v811h427v-1466h-427l-549 805v-805h-426v1466zM668 -165l30 118q94 23 176 23q171 0 236 -58t65 -137q0 -48 -29.5 -99t-105.5 -82t-202 -31q-114 0 -268 26v123q104 -20 221 -20q86 0 116.5 23t30.5 60q0 29 -25 50t-78 21q-71 0 -167 -17z" />
    <glyph glyph-name="ncommaaccent" unicode="&#x146;" 
d="M123 1062h379v-173q85 106 172 151.5t212 45.5q169 0 264.5 -100.5t95.5 -310.5v-675h-409v584q0 100 -37 141.5t-104 41.5q-74 0 -120 -56t-46 -201v-510h-407v1062zM524 -165l30 118q94 23 176 23q171 0 236 -58t65 -137q0 -48 -29.5 -99t-105.5 -82t-202 -31
q-114 0 -268 26v123q104 -20 221 -20q86 0 116.5 23t30.5 60q0 29 -25 50t-78 21q-71 0 -167 -17z" />
    <glyph glyph-name="Eng" unicode="&#x14a;" horiz-adv-x="1667" 
d="M582 1294q63 81 194.5 139t272.5 58q526 0 526 -801q0 -569 -139.5 -844.5t-431.5 -275.5q-103 0 -242 35l61 336q54 -11 88 -11q113 0 162 184t49 560q0 438 -264 438q-104 0 -179 -58t-75 -132v-922h-452v1466h426v-172h4z" />
    <glyph glyph-name="eng" unicode="&#x14b;" horiz-adv-x="1395" 
d="M555 889q132 196 360 196q206 0 289.5 -161t83.5 -518q0 -429 -95 -632.5t-302 -203.5q-129 0 -262 35l61 295q39 -11 72 -11q67 0 93 121t26 377q0 240 -38.5 320.5t-117.5 80.5q-72 0 -109.5 -66.5t-37.5 -182.5v-539h-426v1061h399v-172h4z" />
    <glyph glyph-name="Omacron" unicode="&#x14c;" horiz-adv-x="1706" 
d="M93 732q0 359 200 559t557 200q366 0 564 -196.5t198 -550.5q0 -257 -86.5 -421.5t-250 -256t-407.5 -91.5q-248 0 -410.5 79t-263.5 250t-101 428zM546 730q0 -222 82.5 -319t224.5 -97q146 0 226 95t80 341q0 207 -83.5 302.5t-226.5 95.5q-137 0 -220 -97t-83 -321z
M530 1786h647v-217h-647v217z" />
    <glyph glyph-name="omacron" unicode="&#x14d;" 
d="M73 528q0 243 164 400.5t443 157.5q319 0 482 -185q131 -149 131 -367q0 -245 -162.5 -401.5t-449.5 -156.5q-256 0 -414 130q-194 161 -194 422zM481 529q0 -142 57.5 -210t144.5 -68q88 0 144.5 67t56.5 215q0 138 -57 205.5t-141 67.5q-89 0 -147 -68.5t-58 -208.5z
M358 1446h647v-217h-647v217z" />
    <glyph glyph-name="Obreve" unicode="&#x14e;" horiz-adv-x="1706" 
d="M93 732q0 359 200 559t557 200q366 0 564 -196.5t198 -550.5q0 -257 -86.5 -421.5t-250 -256t-407.5 -91.5q-248 0 -410.5 79t-263.5 250t-101 428zM546 730q0 -222 82.5 -319t224.5 -97q146 0 226 95t80 341q0 207 -83.5 302.5t-226.5 95.5q-137 0 -220 -97t-83 -321z
M1018 1875h165q-6 -95 -45 -159.5t-118 -103.5t-171 -39q-152 0 -243 79.5t-106 222.5h172q20 -58 57 -82.5t111 -24.5q87 0 124.5 24.5t53.5 82.5z" />
    <glyph glyph-name="obreve" unicode="&#x14f;" 
d="M73 528q0 243 164 400.5t443 157.5q319 0 482 -185q131 -149 131 -367q0 -245 -162.5 -401.5t-449.5 -156.5q-256 0 -414 130q-194 161 -194 422zM481 529q0 -142 57.5 -210t144.5 -68q88 0 144.5 67t56.5 215q0 138 -57 205.5t-141 67.5q-89 0 -147 -68.5t-58 -208.5z
M850 1491h165q-6 -95 -45 -159.5t-118 -103.5t-171 -39q-152 0 -243 79.5t-106 222.5h172q20 -58 57 -82.5t111 -24.5q87 0 124.5 24.5t53.5 82.5z" />
    <glyph glyph-name="Rcommaaccent" unicode="&#x156;" horiz-adv-x="1593" 
d="M156 0v1466h755q210 0 321 -36t179 -133.5t68 -237.5q0 -122 -52 -210.5t-143 -143.5q-58 -35 -159 -58q81 -27 118 -54q25 -18 72.5 -77t63.5 -91l219 -425h-512l-242 448q-46 87 -82 113q-49 34 -111 34h-40v-595h-455zM611 872h191q31 0 120 20q45 9 73.5 46t28.5 85
q0 71 -45 109t-169 38h-199v-298zM632 -165l30 118q94 23 176 23q171 0 236 -58t65 -137q0 -48 -29.5 -99t-105.5 -82t-202 -31q-114 0 -268 26v123q104 -20 221 -20q86 0 116.5 23t30.5 60q0 29 -25 50t-78 21q-71 0 -167 -17z" />
    <glyph glyph-name="rcommaaccent" unicode="&#x157;" horiz-adv-x="909" 
d="M127 1062h381v-174q55 113 113.5 155.5t144.5 42.5q90 0 197 -56l-126 -290q-72 30 -114 30q-80 0 -124 -66q-63 -93 -63 -348v-356h-409v1062zM264 -165l30 118q94 23 176 23q171 0 236 -58t65 -137q0 -48 -29.5 -99t-105.5 -82t-202 -31q-114 0 -268 26v123
q104 -20 221 -20q86 0 116.5 23t30.5 60q0 29 -25 50t-78 21q-71 0 -167 -17z" />
    <glyph glyph-name="Scircumflex" unicode="&#x15c;" horiz-adv-x="1479" 
d="M71 485l431 27q14 -105 57 -160q70 -89 200 -89q97 0 149.5 45.5t52.5 105.5q0 57 -50 102t-232 85q-298 67 -425 178q-128 111 -128 283q0 113 65.5 213.5t197 158t360.5 57.5q281 0 428.5 -104.5t175.5 -332.5l-427 -25q-17 99 -71.5 144t-150.5 45q-79 0 -119 -33.5
t-40 -81.5q0 -35 33 -63q32 -29 152 -54q297 -64 425.5 -129.5t187 -162.5t58.5 -217q0 -141 -78 -260t-218 -180.5t-353 -61.5q-374 0 -518 144t-163 366zM597 1862h289l222 -286h-248l-122 153l-122 -153h-248z" />
    <glyph glyph-name="scircumflex" unicode="&#x15d;" horiz-adv-x="1251" 
d="M51 294l404 38q25 -72 70 -103t120 -31q82 0 127 35q35 26 35 65q0 44 -46 68q-33 17 -175 42q-212 37 -294.5 68.5t-139 106.5t-56.5 171q0 105 61 181t168 113.5t287 37.5q190 0 280.5 -29t151 -90t100.5 -165l-386 -38q-15 51 -50 75q-48 32 -116 32
q-69 0 -100.5 -24.5t-31.5 -59.5q0 -39 40 -59t174 -36q203 -23 302 -64t151.5 -117t52.5 -167q0 -92 -55.5 -179t-175 -138.5t-325.5 -51.5q-291 0 -414.5 83t-158.5 236zM465 1478h289l222 -286h-248l-122 153l-122 -153h-248z" />
    <glyph glyph-name="Tbar" unicode="&#x166;" horiz-adv-x="1479" 
d="M1427 1106h-460v-283h192v-262h-192v-561h-453v561h-182v262h182v283h-461v360h1374v-360z" />
    <glyph glyph-name="tbar" unicode="&#x167;" horiz-adv-x="909" 
d="M850 8q-147 -33 -283 -33q-153 0 -231 44t-105.5 128t-27.5 244v31h-150v221h150v121h-150v297h150v196l407 209v-405h224v-297h-224v-121h176v-221h-176v-33q0 -82 23 -103.5t61 -21.5q51 0 125 27z" />
    <glyph glyph-name="Utilde" unicode="&#x168;" horiz-adv-x="1706" 
d="M1104 1466h452v-874q0 -130 -40.5 -245.5t-127 -202t-181.5 -121.5q-132 -49 -317 -49q-107 0 -233.5 15t-211.5 59.5t-155.5 126.5t-96.5 169q-42 140 -42 248v874h452v-895q0 -120 66.5 -187.5t184.5 -67.5q117 0 183.5 66.5t66.5 188.5v895zM1055 1850h158
q1 -26 1 -45q0 -111 -56 -172t-144 -61q-64 0 -194 53q-79 32 -109 32q-29 0 -45 -18t-17 -64h-156q-1 24 -1 42q0 107 59 170t140 63q35 0 66 -8t114.5 -43t121.5 -35q27 0 43.5 18.5t18.5 67.5z" />
    <glyph glyph-name="utilde" unicode="&#x169;" 
d="M1242 0h-380v172q-85 -106 -171.5 -151t-212.5 -45q-168 0 -263.5 100.5t-95.5 309.5v676h409v-584q0 -100 37 -142t104 -42q73 0 119.5 56t46.5 201v511h407v-1062zM887 1466h158q1 -26 1 -45q0 -111 -56 -172t-144 -61q-64 0 -194 53q-79 32 -109 32q-29 0 -45 -18
t-17 -64h-156q-1 24 -1 42q0 107 59 170t140 63q35 0 66 -8t114.5 -43t121.5 -35q27 0 43.5 18.5t18.5 67.5z" />
    <glyph glyph-name="Umacron" unicode="&#x16a;" horiz-adv-x="1706" 
d="M1104 1466h452v-874q0 -130 -40.5 -245.5t-127 -202t-181.5 -121.5q-132 -49 -317 -49q-107 0 -233.5 15t-211.5 59.5t-155.5 126.5t-96.5 169q-42 140 -42 248v874h452v-895q0 -120 66.5 -187.5t184.5 -67.5q117 0 183.5 66.5t66.5 188.5v895zM534 1786h647v-217h-647
v217z" />
    <glyph glyph-name="umacron" unicode="&#x16b;" 
d="M1242 0h-380v172q-85 -106 -171.5 -151t-212.5 -45q-168 0 -263.5 100.5t-95.5 309.5v676h409v-584q0 -100 37 -142t104 -42q73 0 119.5 56t46.5 201v511h407v-1062zM354 1446h647v-217h-647v217z" />
    <glyph glyph-name="Ubreve" unicode="&#x16c;" horiz-adv-x="1706" 
d="M1104 1466h452v-874q0 -130 -40.5 -245.5t-127 -202t-181.5 -121.5q-132 -49 -317 -49q-107 0 -233.5 15t-211.5 59.5t-155.5 126.5t-96.5 169q-42 140 -42 248v874h452v-895q0 -120 66.5 -187.5t184.5 -67.5q117 0 183.5 66.5t66.5 188.5v895zM1026 1875h165
q-6 -95 -45 -159.5t-118 -103.5t-171 -39q-152 0 -243 79.5t-106 222.5h172q20 -58 57 -82.5t111 -24.5q87 0 124.5 24.5t53.5 82.5z" />
    <glyph glyph-name="ubreve" unicode="&#x16d;" 
d="M1242 0h-380v172q-85 -106 -171.5 -151t-212.5 -45q-168 0 -263.5 100.5t-95.5 309.5v676h409v-584q0 -100 37 -142t104 -42q73 0 119.5 56t46.5 201v511h407v-1062zM858 1491h165q-6 -95 -45 -159.5t-118 -103.5t-171 -39q-152 0 -243 79.5t-106 222.5h172
q20 -58 57 -82.5t111 -24.5q87 0 124.5 24.5t53.5 82.5z" />
    <glyph glyph-name="Uogonek" unicode="&#x172;" horiz-adv-x="1706" 
d="M1161 -401q-113 -45 -211 -45q-118 0 -186 63t-68 170q0 78 35 195q-290 15 -434.5 184.5t-144.5 425.5v874h452v-895q0 -119 63.5 -187.5t186.5 -68.5t185.5 68.5t62.5 187.5v895h452v-874q0 -273 -161 -444t-490 -173q-8 -55 -8 -94q0 -153 139 -153q46 0 127 26v-155z
" />
    <glyph glyph-name="uogonek" unicode="&#x173;" 
d="M1286 -401q-114 -45 -211 -45q-118 0 -186 63t-68 170q0 62 21 140l20 73v172h-4q-137 -197 -379 -197q-178 0 -269 106t-91 304v676h407v-584q0 -184 144 -184q79 0 122.5 58.5t43.5 199.5v510h407v-1061h-211q-12 -65 -12 -119q0 -153 139 -153q46 0 127 26v-155z" />
    <glyph glyph-name="Wcircumflex" unicode="&#x174;" horiz-adv-x="2048" 
d="M-1 1466h430l155 -819l226 819h429l227 -819l155 819h428l-323 -1466h-444l-257 923l-256 -923h-444zM885 1854h289l222 -286h-248l-122 153l-122 -153h-248z" />
    <glyph glyph-name="wcircumflex" unicode="&#x175;" horiz-adv-x="1933" 
d="M3 1062h394l171 -669l216 669h367l224 -669l171 669h391l-391 -1062h-362l-215 639l-208 -639h-364zM817 1478h289l222 -286h-248l-122 153l-122 -153h-248z" />
    <glyph glyph-name="Ycircumflex" unicode="&#x176;" horiz-adv-x="1593" 
d="M2 1466h503l296 -495l296 495h500l-570 -852v-614h-454v614zM657 1854h289l222 -286h-248l-122 153l-122 -153h-248z" />
    <glyph glyph-name="ycircumflex" unicode="&#x177;" horiz-adv-x="1251" 
d="M5 1062h430l219 -707l203 707h401l-421 -1135q-72 -194 -147 -262q-106 -96 -323 -96q-88 0 -272 24l-32 284q88 -28 196 -28q72 0 116.5 33t75.5 118zM505 1478h289l222 -286h-248l-122 153l-122 -153h-248z" />
    <glyph glyph-name="longs" unicode="&#x17f;" horiz-adv-x="799" 
d="M784 1473l-59 -250q-46 12 -84 12q-131 0 -131 -209v-1026h-391v1016q0 204 119 339.5t424 135.5q61 0 122 -18z" />
    <glyph glyph-name="Aringacute" unicode="&#x1fa;" horiz-adv-x="1593" 
d="M587 1466q-32 56 -32 121q0 99 70.5 170t169.5 71q100 0 170.5 -70.5t70.5 -170.5q0 -65 -33 -121h44l551 -1466h-474l-77 242h-506l-76 -242h-463l551 1466h34zM692 1588q0 -44 30 -74t73 -30q42 0 72 30t30 73t-30 73t-72 30q-43 0 -73 -30t-30 -72zM945 577l-150 485
l-149 -485h299zM747 2219h350l-323 -299h-195z" />
    <glyph glyph-name="aringacute" unicode="&#x1fb;" 
d="M494 718l-389 41q22 102 63.5 160.5t119.5 101.5q56 31 154 48t212 17q183 0 294 -20.5t185 -85.5q52 -45 82 -127.5t30 -157.5v-469q0 -75 9.5 -117.5t41.5 -108.5h-382q-23 41 -30 62.5t-14 67.5q-80 -77 -159 -110q-108 -44 -251 -44q-190 0 -288.5 88t-98.5 217
q0 121 71 199t262 116q229 46 297 64.5t144 48.5q0 75 -31 105t-109 30q-100 0 -150 -32q-39 -25 -63 -94zM847 504q-84 -30 -175 -53q-124 -33 -157 -65q-34 -33 -34 -75q0 -48 33.5 -78.5t98.5 -30.5q68 0 126.5 33t83 80.5t24.5 123.5v65zM923 1403q0 -100 -70.5 -170
t-169.5 -70q-100 0 -170.5 70t-70.5 170t70.5 170.5t170.5 70.5q99 0 169.5 -70.5t70.5 -170.5zM785 1404q0 43 -30 73t-73 30t-73 -30t-30 -73t30 -73t73 -30t73 30t30 73zM619 2031h350l-323 -299h-195z" />
    <glyph glyph-name="AEacute" unicode="&#x1fc;" horiz-adv-x="2048" 
d="M556 1466h1400v-313h-618v-233h562v-299h-562v-289h637v-332h-1063v263h-435l-97 -263h-456zM811 1169l-211 -572h312v572h-101zM1167 1871h350l-323 -299h-195z" />
    <glyph glyph-name="aeacute" unicode="&#x1fd;" horiz-adv-x="2048" 
d="M1990 431h-771q11 -96 47 -143q55 -71 144 -71q50 0 86.5 22.5t71.5 77.5l397 -35q-81 -151 -209.5 -228.5t-343.5 -77.5q-165 0 -284 48q-90 36 -173 120q-123 -90 -233.5 -129t-245.5 -39q-203 0 -305 85.5t-102 223.5q0 69 32 130t81 97q65 47 141 73q35 12 171 38
t175 36q67 17 156 47q-2 80 -32.5 109t-111.5 29q-85 0 -127 -30.5t-59 -96.5l-391 45q29 106 68 160q53 74 161.5 119.5t305.5 45.5q158 0 260 -28q73 -20 161 -77q92 58 167.5 81t178.5 23q154 0 264.5 -44t180.5 -119.5t100 -150.5q39 -99 39 -274v-67zM1584 626
q-8 103 -52.5 160t-125.5 57q-72 0 -123.5 -52t-66.5 -165h368zM825 507l-125 -41q-24 -8 -42 -11q-99 -19 -138.5 -57t-39.5 -79q0 -46 33 -78t87 -32q55 0 113 28t89 85q23 41 23 109v76zM995 1491h350l-323 -299h-195z" />
    <glyph glyph-name="Oslashacute" unicode="&#x1fe;" horiz-adv-x="1706" 
d="M1346 1352l174 164l151 -161l-173 -164q53 -80 83 -201.5t30 -254.5q0 -257 -92.5 -422.5t-255 -251.5t-409.5 -86q-176 0 -315 45q-90 29 -178 95l-175 -167l-151 159l176 168q-119 185 -119 454q0 361 199.5 561.5t554.5 200.5q315 0 500 -139zM1054 1075
q-75 73 -206 73q-137 0 -220 -96.5t-83 -313.5q0 -68 10 -137zM1150 861l-501 -474q73 -73 203 -73q145 0 225.5 94t80.5 326q0 64 -8 127zM831 1871h350l-323 -299h-195z" />
    <glyph glyph-name="oslashacute" unicode="&#x1ff;" 
d="M1153 1156l104 -94l-124 -136q69 -58 114 -164t45 -230q0 -244 -161 -400t-438 -156q-113 0 -199 19q-59 13 -149 56l-133 -148l-105 97l127 135q-85 91 -123 183t-38 208q0 245 163 402.5t438 157.5q112 0 200 -21q59 -14 146 -58zM821 785q-28 27 -48 35q-39 16 -88 16
q-101 0 -166.5 -77.5t-65.5 -236.5q0 -53 17 -126zM545 270q33 -26 54 -34q40 -14 88 -14q98 0 161.5 77.5t63.5 243.5q0 51 -17 117zM671 1491h350l-323 -299h-195z" />
    <glyph glyph-name="tonos" unicode="&#x384;" horiz-adv-x="389" 
d="M381 1466l-180 -299h-195l66 299h309z" />
    <glyph glyph-name="dieresistonos" unicode="&#x385;" horiz-adv-x="682" 
d="M557 1819l-180 -299h-195l66 299h309zM684 1196h-262v250h262v-250zM260 1196h-262v250h262v-250z" />
    <glyph glyph-name="Alphatonos" unicode="&#x386;" horiz-adv-x="1593" 
d="M1052 242h-516l-71 -242h-463l551 1466h494l551 -1466h-474zM957 559l-162 527l-161 -527h323zM381 1466l-180 -299h-195l66 299h309z" />
    <glyph glyph-name="anoteleia" unicode="&#x387;" horiz-adv-x="1024" 
d="M184 932h314v-300h-314v300z" />
    <glyph glyph-name="Epsilontonos" unicode="&#x388;" horiz-adv-x="1733" 
d="M405 1466h1214v-313h-760v-233h705v-299h-705v-289h782v-332h-1236v1466zM381 1466l-180 -299h-195l66 299h309z" />
    <glyph glyph-name="Etatonos" unicode="&#x389;" horiz-adv-x="1960" 
d="M404 1466h453v-513h495v513h455v-1466h-455v593h-495v-593h-453v1466zM381 1466l-180 -299h-195l66 299h309z" />
    <glyph glyph-name="Iotatonos" unicode="&#x38a;" horiz-adv-x="1026" 
d="M400 1466h454v-1466h-454v1466zM381 1466l-180 -299h-195l66 299h309z" />
    <glyph glyph-name="Omicrontonos" unicode="&#x38c;" horiz-adv-x="1815" 
d="M201 732q0 359 200 559t557 200q366 0 564 -196.5t198 -550.5q0 -257 -86.5 -421.5t-250 -256t-407.5 -91.5q-248 0 -410.5 79t-263.5 250t-101 428zM654 730q0 -222 82.5 -319t224.5 -97q146 0 226 95t80 341q0 207 -83.5 302.5t-226.5 95.5q-137 0 -220 -97t-83 -321z
M381 1466l-180 -299h-195l66 299h309z" />
    <glyph glyph-name="Upsilontonos" unicode="&#x38e;" horiz-adv-x="1985" 
d="M390 1466h503l296 -495l296 495h500l-570 -852v-614h-454v614zM381 1466l-180 -299h-195l66 299h309z" />
    <glyph glyph-name="Omegatonos" unicode="&#x38f;" horiz-adv-x="1829" 
d="M448 319q-85 63 -157.5 209.5t-72.5 292.5q0 309 196.5 489.5t559.5 180.5q375 0 568.5 -173t193.5 -497q0 -146 -72.5 -292.5t-157.5 -209.5h217v-319h-661v319q221 155 221 472q0 360 -309 360q-149 0 -226 -96t-77 -264q0 -297 221 -472v-319h-662v319h218zM381 1466
l-180 -299h-195l66 299h309z" />
    <glyph glyph-name="iotadieresistonos" unicode="&#x390;" horiz-adv-x="797" 
d="M138 1062h407v-1062h-407v1062zM557 1819l-180 -299h-195l66 299h309zM684 1196h-262v250h262v-250zM260 1196h-262v250h262v-250z" />
    <glyph glyph-name="Alpha" unicode="&#x391;" horiz-adv-x="1593" 
d="M1052 242h-516l-71 -242h-463l551 1466h494l551 -1466h-474zM957 559l-162 527l-161 -527h323z" />
    <glyph glyph-name="Beta" unicode="&#x392;" horiz-adv-x="1593" 
d="M151 1466h848q212 0 325.5 -105t113.5 -260q0 -130 -81 -223q-54 -62 -158 -98q158 -38 232.5 -130.5t74.5 -232.5q0 -114 -53 -205t-145 -144q-57 -33 -172 -48q-153 -20 -203 -20h-782v1466zM608 891h197q106 0 147.5 36.5t41.5 105.5q0 64 -41.5 100t-144.5 36h-200
v-278zM608 315h231q117 0 165 41.5t48 111.5q0 65 -47.5 104.5t-166.5 39.5h-230v-297z" />
    <glyph glyph-name="Gamma" unicode="&#x393;" 
d="M1311 1106h-709v-1106h-452v1466h1161v-360z" />
    <glyph glyph-name="Delta" unicode="&#x394;" horiz-adv-x="1593" 
d="M1595 0h-1597l551 1466h495zM1030 315l-235 770l-242 -770h477z" />
    <glyph glyph-name="Epsilon" unicode="&#x395;" horiz-adv-x="1479" 
d="M149 1466h1214v-313h-760v-233h705v-299h-705v-289h782v-332h-1236v1466z" />
    <glyph glyph-name="Zeta" unicode="&#x396;" horiz-adv-x="1479" 
d="M113 1466h1282v-293l-822 -858h852v-315h-1391v304l813 849h-734v313z" />
    <glyph glyph-name="Eta" unicode="&#x397;" horiz-adv-x="1706" 
d="M152 1466h453v-513h495v513h455v-1466h-455v593h-495v-593h-453v1466z" />
    <glyph glyph-name="Theta" unicode="&#x398;" horiz-adv-x="1706" 
d="M850 1491q367 0 564.5 -196t197.5 -552q0 -371 -195.5 -569.5t-548.5 -198.5q-396 0 -585 209t-189 547q0 355 196 557.5t560 202.5zM852 315q152 0 229.5 97.5t77.5 337.5q0 401 -309 401q-303 0 -303 -422q0 -414 305 -414zM1057 604h-400v277h400v-277z" />
    <glyph glyph-name="Iota" unicode="&#x399;" horiz-adv-x="797" 
d="M168 1466h454v-1466h-454v1466z" />
    <glyph glyph-name="Kappa" unicode="&#x39a;" horiz-adv-x="1706" 
d="M152 1466h453v-554l475 554h602l-534 -553l558 -913h-558l-309 603l-234 -245v-358h-453v1466z" />
    <glyph glyph-name="Lambda" unicode="&#x39b;" horiz-adv-x="1593" 
d="M1591 0h-473l-332 1057l-323 -1057h-461l545 1466h491z" />
    <glyph glyph-name="Mu" unicode="&#x39c;" horiz-adv-x="1933" 
d="M145 1466h596l230 -892l229 892h594v-1466h-370v1118l-287 -1118h-335l-286 1118v-1118h-371v1466z" />
    <glyph glyph-name="Nu" unicode="&#x39d;" horiz-adv-x="1706" 
d="M153 1466h423l552 -811v811h427v-1466h-427l-549 805v-805h-426v1466z" />
    <glyph glyph-name="Xi" unicode="&#x39e;" horiz-adv-x="1479" 
d="M1335 1151h-1194v315h1194v-315zM1174 621h-865v297h865v-297zM1358 0h-1237v332h1237v-332z" />
    <glyph glyph-name="Omicron" unicode="&#x39f;" horiz-adv-x="1706" 
d="M93 732q0 359 200 559t557 200q366 0 564 -196.5t198 -550.5q0 -257 -86.5 -421.5t-250 -256t-407.5 -91.5q-248 0 -410.5 79t-263.5 250t-101 428zM546 730q0 -222 82.5 -319t224.5 -97q146 0 226 95t80 341q0 207 -83.5 302.5t-226.5 95.5q-137 0 -220 -97t-83 -321z
" />
    <glyph glyph-name="Pi" unicode="&#x3a0;" horiz-adv-x="1706" 
d="M1554 0h-452v1106h-498v-1106h-452v1466h1402v-1466z" />
    <glyph glyph-name="Rho" unicode="&#x3a1;" horiz-adv-x="1479" 
d="M148 1466h753q246 0 368.5 -117t122.5 -333q0 -222 -133.5 -347t-407.5 -125h-248v-544h-455v1466zM603 841h111q131 0 184 45.5t53 116.5q0 69 -46 117t-173 48h-129v-327z" />
    <glyph glyph-name="Sigma" unicode="&#x3a3;" horiz-adv-x="1479" 
d="M1389 0h-1237v317l434 441l-434 405v303h1214v-315h-725l430 -393l-430 -426h748v-332z" />
    <glyph glyph-name="Tau" unicode="&#x3a4;" horiz-adv-x="1479" 
d="M47 1466h1377v-362h-462v-1104h-453v1104h-462v362z" />
    <glyph glyph-name="Upsilon" unicode="&#x3a5;" horiz-adv-x="1593" 
d="M2 1466h503l296 -495l296 495h500l-570 -852v-614h-454v614z" />
    <glyph glyph-name="Phi" unicode="&#x3a6;" horiz-adv-x="1892" 
d="M1153 1354q668 -70 668 -600q0 -541 -668 -602v-172h-412v176q-667 57 -667 598q0 531 667 600v133h412v-133zM1153 459q107 31 166 110.5t59 190.5q0 106 -60.5 190.5t-164.5 118.5v-610zM741 455v606q-101 -29 -163 -114.5t-62 -194.5q0 -102 61.5 -183t163.5 -114z
" />
    <glyph glyph-name="Chi" unicode="&#x3a7;" horiz-adv-x="1593" 
d="M49 1466h499l260 -451l252 451h494l-456 -710l499 -756h-509l-289 471l-290 -471h-506l506 764z" />
    <glyph glyph-name="Psi" unicode="&#x3a8;" horiz-adv-x="1937" 
d="M1853 1001q0 -274 -162.5 -445t-496.5 -171v-385h-453v381q-334 0 -496.5 171t-162.5 445v465h453v-485q0 -79 10.5 -129.5t55.5 -88.5t140 -38v745h453v-741q95 0 140.5 38t56 88.5t10.5 129.5v485h452v-465z" />
    <glyph glyph-name="Omega" unicode="&#x3a9;" horiz-adv-x="1706" 
d="M324 319q-85 63 -157.5 209.5t-72.5 292.5q0 309 196.5 489.5t559.5 180.5q375 0 568.5 -173t193.5 -497q0 -146 -72.5 -292.5t-157.5 -209.5h217v-319h-661v319q221 155 221 472q0 360 -309 360q-149 0 -226 -96t-77 -264q0 -297 221 -472v-319h-662v319h218z" />
    <glyph glyph-name="Iotadieresis" unicode="&#x3aa;" horiz-adv-x="797" 
d="M168 1466h454v-1466h-454v1466zM56 1809h260v-250h-260v250zM480 1809h263v-250h-263v250z" />
    <glyph glyph-name="Upsilondieresis" unicode="&#x3ab;" horiz-adv-x="1593" 
d="M2 1466h503l296 -495l296 495h500l-570 -852v-614h-454v614zM454 1809h260v-250h-260v250zM878 1809h263v-250h-263v250z" />
    <glyph glyph-name="alphatonos" unicode="&#x3ac;" horiz-adv-x="1389" 
d="M1352 1063q-72 -126 -105 -275.5t-33 -269.5q0 -87 30.5 -237t92.5 -281h-372q-26 52 -47 119q-99 -144 -318 -144q-240 0 -381 175.5t-141 398.5q0 235 145.5 385.5t380.5 150.5q193 0 324 -137q11 53 43 115h381zM653 240q80 0 118 68.5t38 219.5q0 293 -160 293
q-82 0 -121 -71.5t-39 -221.5q0 -288 164 -288zM909 1466l-180 -299h-195l66 299h309z" />
    <glyph glyph-name="epsilontonos" unicode="&#x3ad;" horiz-adv-x="1122" 
d="M1114 104q-164 -129 -452 -129q-277 0 -432.5 91.5t-155.5 244.5q0 158 188 240q-147 71 -147 233q0 141 145 221t406 80q252 0 405 -77l-153 -222q-111 58 -242 58q-158 0 -158 -80q0 -52 53 -77t193 -25v-228q-147 0 -213 -29t-66 -94q0 -94 193 -94q145 0 248 82z
M837 1466l-180 -299h-195l66 299h309z" />
    <glyph glyph-name="etatonos" unicode="&#x3ae;" 
d="M1247 -406h-407v990q0 184 -144 184q-79 0 -122.5 -58.5t-43.5 -199.5v-510h-407v1061h381v-172h4q137 196 379 196q178 0 269 -105.5t91 -303.5v-1082zM917 1466l-180 -299h-195l66 299h309z" />
    <glyph glyph-name="iotatonos" unicode="&#x3af;" horiz-adv-x="682" 
d="M138 1062h407v-1062h-407v1062zM561 1466l-180 -299h-195l66 299h309z" />
    <glyph glyph-name="upsilondieresistonos" unicode="&#x3b0;" 
d="M1243 430q0 -209 -149 -332t-418 -123q-265 0 -411 122.5t-146 332.5v631h407v-572q0 -196 154 -196q75 0 115.5 44t40.5 152v572h407v-631zM901 1819l-180 -299h-195l66 299h309zM1028 1196h-262v250h262v-250zM604 1196h-262v250h262v-250z" />
    <glyph glyph-name="alpha" unicode="&#x3b1;" horiz-adv-x="1389" 
d="M1352 1063q-72 -126 -105 -275.5t-33 -269.5q0 -87 30.5 -237t92.5 -281h-372q-26 52 -47 119q-99 -144 -318 -144q-240 0 -381 175.5t-141 398.5q0 235 145.5 385.5t380.5 150.5q193 0 324 -137q11 53 43 115h381zM653 240q80 0 118 68.5t38 219.5q0 293 -160 293
q-82 0 -121 -71.5t-39 -221.5q0 -288 164 -288z" />
    <glyph glyph-name="beta" unicode="&#x3b2;" horiz-adv-x="1319" 
d="M942 838q130 -30 214.5 -148.5t84.5 -269.5q0 -214 -112.5 -329.5t-309.5 -115.5q-203 0 -309 123v-504h-391v1422q0 232 137.5 353.5t380.5 121.5q233 0 365.5 -97.5t132.5 -277.5q0 -93 -53 -166t-140 -112zM592 891q76 13 126 65.5t50 128.5q0 150 -127 150
q-64 0 -97.5 -52.5t-33.5 -146.5v-639q68 -155 201 -155q75 0 118 45.5t43 128.5q0 102 -66 174.5t-214 85.5v215z" />
    <glyph glyph-name="gamma" unicode="&#x3b3;" horiz-adv-x="1251" 
d="M1253 1061l-428 -1008v-459h-407v459l-420 1008h424l203 -672l217 672h411z" />
    <glyph glyph-name="delta" unicode="&#x3b4;" 
d="M655 1182l303 -166q163 -88 248.5 -216t85.5 -282q0 -229 -155.5 -386t-456.5 -157q-290 0 -448 155t-158 382q0 176 94 311.5t274 194.5l-274 162v284h981v-282h-494zM682 254q98 0 150.5 67t52.5 195q0 258 -199 258q-101 0 -153 -71.5t-52 -190.5q0 -124 51.5 -191
t149.5 -67zM680 1086z" />
    <glyph glyph-name="epsilon" unicode="&#x3b5;" horiz-adv-x="1122" 
d="M1114 104q-164 -129 -452 -129q-277 0 -432.5 91.5t-155.5 244.5q0 158 188 240q-147 71 -147 233q0 141 145 221t406 80q252 0 405 -77l-153 -222q-111 58 -242 58q-158 0 -158 -80q0 -52 53 -77t193 -25v-228q-147 0 -213 -29t-66 -94q0 -94 193 -94q145 0 248 82z" />
    <glyph glyph-name="zeta" unicode="&#x3b6;" horiz-adv-x="942" 
d="M924 1229q-238 -259 -344.5 -420.5t-106.5 -308.5q0 -60 30.5 -110.5t131.5 -97.5t148.5 -80t80.5 -95.5t33 -163.5q0 -166 -118.5 -274.5t-307.5 -108.5h-113l70 264q170 0 170 76q0 32 -25 57t-133.5 58t-181 73t-126.5 132t-54 251q0 160 109 328t348 375h-412v282
h801v-237z" />
    <glyph glyph-name="eta" unicode="&#x3b7;" 
d="M1247 -406h-407v990q0 184 -144 184q-79 0 -122.5 -58.5t-43.5 -199.5v-510h-407v1061h381v-172h4q137 196 379 196q178 0 269 -105.5t91 -303.5v-1082z" />
    <glyph glyph-name="theta" unicode="&#x3b8;" 
d="M692 1491q272 0 431 -193t159 -555q0 -374 -152.5 -571t-447.5 -197q-288 0 -443 198.5t-155 565.5q0 752 608 752zM870 891q-10 166 -53.5 243.5t-136.5 77.5q-91 0 -134 -76t-50 -245h374zM872 594h-376q8 -177 52.5 -258.5t133.5 -81.5q177 0 190 340z" />
    <glyph glyph-name="iota" unicode="&#x3b9;" horiz-adv-x="682" 
d="M138 1062h407v-1062h-407v1062z" />
    <glyph glyph-name="kappa" unicode="&#x3ba;" 
d="M1358 0h-459l-215 426l-154 -150v-276h-407v1061h407v-352l306 352h499l-379 -371z" />
    <glyph glyph-name="lambda" unicode="&#x3bb;" horiz-adv-x="1251" 
d="M1249 0h-399l-221 662l-203 -662h-430l473 1083l-164 383h393z" />
    <glyph glyph-name="mu" unicode="&#x3bc;" 
d="M1243 0h-383v84q-65 -109 -164 -109q-121 0 -170 101v-477h-407v1462h407v-533q0 -72 8.5 -117t43 -80.5t106.5 -35.5q75 0 113.5 47t38.5 197v522h407v-1061z" />
    <glyph glyph-name="nu" unicode="&#x3bd;" horiz-adv-x="1251" 
d="M2 1062h424l206 -673l213 673h411l-451 -1062h-361z" />
    <glyph glyph-name="xi" unicode="&#x3be;" horiz-adv-x="942" 
d="M829 745q-164 -10 -260 -87t-96 -207q0 -51 29 -93t127.5 -84.5t148 -74.5t84.5 -94.5t35 -163.5q0 -164 -117.5 -267.5t-308.5 -103.5h-113l70 264q77 0 120.5 21t43.5 55q0 30 -25 53t-132 52.5t-179 65.5t-125 119t-53 228q0 159 94.5 267t257.5 143
q-140 31 -214.5 112t-74.5 199q0 156 135 245t390 89h161v-271q-79 5 -133 5q-202 0 -202 -111q0 -52 62.5 -83.5t166.5 -31.5h108v-246z" />
    <glyph glyph-name="omicron" unicode="&#x3bf;" 
d="M73 528q0 243 164 400.5t443 157.5q319 0 482 -185q131 -149 131 -367q0 -245 -162.5 -401.5t-449.5 -156.5q-256 0 -414 130q-194 161 -194 422zM481 529q0 -142 57.5 -210t144.5 -68q88 0 144.5 67t56.5 215q0 138 -57 205.5t-141 67.5q-89 0 -147 -68.5t-58 -208.5z
" />
    <glyph glyph-name="pi" unicode="&#x3c0;" horiz-adv-x="1448" 
d="M1430 764h-134v-764h-407v764h-309v-764h-408v764h-152v297h1410v-297z" />
    <glyph glyph-name="rho" unicode="&#x3c1;" 
d="M125 -406v918q0 262 156.5 417.5t425.5 155.5q272 0 427.5 -157t155.5 -414q0 -246 -121 -392.5t-327 -146.5q-204 0 -310 117v-498h-407zM717 276q80 0 123 67t43 179q0 262 -172 262q-86 0 -134.5 -65.5t-48.5 -192.5q0 -107 48 -178.5t141 -71.5z" />
    <glyph glyph-name="sigma1" unicode="&#x3c2;" horiz-adv-x="1081" 
d="M1069 1044l-86 -294q-143 34 -223 34q-119 0 -203 -79.5t-84 -196.5q0 -49 43 -97t234.5 -142t250 -167t58.5 -153q0 -180 -136 -279.5t-374 -99.5q-82 0 -215 8l51 266q96 -10 150 -10q163 0 163 68q0 34 -34.5 66t-169.5 85.5t-216 98.5t-140.5 124t-59.5 197
q0 268 192 440t498 172q170 0 301 -41z" />
    <glyph glyph-name="sigma" unicode="&#x3c3;" horiz-adv-x="1532" 
d="M1487 764h-240q45 -108 45 -229q0 -233 -155.5 -396.5t-456.5 -163.5q-289 0 -447.5 161.5t-158.5 391.5q0 238 159.5 397.5t446.5 159.5q68 0 146 -12l65 -12h596v-297zM682 254q98 0 150.5 72t52.5 206q0 133 -54 204t-145 71q-101 0 -153 -77.5t-52 -201.5
q0 -129 51.5 -201.5t149.5 -72.5z" />
    <glyph glyph-name="tau" unicode="&#x3c4;" horiz-adv-x="1040" 
d="M1018 764h-295v-764h-408v764h-295v297h998v-297z" />
    <glyph glyph-name="upsilon" unicode="&#x3c5;" 
d="M1243 430q0 -209 -149 -332t-418 -123q-265 0 -411 122.5t-146 332.5v631h407v-572q0 -196 154 -196q75 0 115.5 44t40.5 152v572h407v-631z" />
    <glyph glyph-name="phi" unicode="&#x3c6;" horiz-adv-x="1819" 
d="M700 281v346q0 258 108.5 358t346.5 100q278 0 429 -144t151 -415q0 -233 -175 -385t-468 -164v-383h-392v386q-278 13 -453 164t-175 382q0 260 141.5 399.5t460.5 159.5l-64 -301q-63 -14 -105 -77t-42 -154q0 -117 68.5 -189t168.5 -83zM1092 276q108 14 179.5 80
t71.5 170q0 120 -44 189t-103 69q-56 0 -80 -45t-24 -139v-324z" />
    <glyph glyph-name="chi" unicode="&#x3c7;" horiz-adv-x="1327" 
d="M1313 -406h-445l-200 523l-244 -523h-410l379 766l-358 701h448l181 -488l202 488h420l-354 -701z" />
    <glyph glyph-name="psi" unicode="&#x3c8;" horiz-adv-x="1876" 
d="M1757 596q0 -297 -155 -456.5t-459 -159.5v-386h-408v383q-305 0 -460.5 159.5t-155.5 459.5v465h407v-486q0 -282 209 -282v768h408v-768q207 0 207 282v486h407v-465z" />
    <glyph glyph-name="omega" unicode="&#x3c9;" horiz-adv-x="1937" 
d="M1743 1061q123 -224 123 -506q0 -264 -138 -422t-378 -158q-121 0 -231 63.5t-152 170.5q-40 -108 -145 -171t-234 -63q-240 0 -378 158t-138 422q0 282 123 506h409q-36 -92 -68 -246.5t-32 -267.5q0 -252 145 -252q42 0 79.5 56.5t37.5 146.5v336h408v-336
q0 -90 36.5 -146.5t77.5 -56.5q146 0 146 252q0 113 -32 267.5t-69 246.5h410z" />
    <glyph glyph-name="iotadieresis" unicode="&#x3ca;" horiz-adv-x="682" 
d="M138 1062h407v-1062h-407v1062zM-2 1446h260v-250h-260v250zM422 1446h263v-250h-263v250z" />
    <glyph glyph-name="upsilondieresis" unicode="&#x3cb;" 
d="M1243 430q0 -209 -149 -332t-418 -123q-265 0 -411 122.5t-146 332.5v631h407v-572q0 -196 154 -196q75 0 115.5 44t40.5 152v572h407v-631zM342 1446h260v-250h-260v250zM766 1446h263v-250h-263v250z" />
    <glyph glyph-name="omicrontonos" unicode="&#x3cc;" 
d="M73 528q0 243 164 400.5t443 157.5q319 0 482 -185q131 -149 131 -367q0 -245 -162.5 -401.5t-449.5 -156.5q-256 0 -414 130q-194 161 -194 422zM481 529q0 -142 57.5 -210t144.5 -68q88 0 144.5 67t56.5 215q0 138 -57 205.5t-141 67.5q-89 0 -147 -68.5t-58 -208.5z
M921 1466l-180 -299h-195l66 299h309z" />
    <glyph glyph-name="upsilontonos" unicode="&#x3cd;" 
d="M1243 430q0 -209 -149 -332t-418 -123q-265 0 -411 122.5t-146 332.5v631h407v-572q0 -196 154 -196q75 0 115.5 44t40.5 152v572h407v-631zM925 1466l-180 -299h-195l66 299h309z" />
    <glyph glyph-name="omegatonos" unicode="&#x3ce;" horiz-adv-x="1937" 
d="M1743 1061q123 -224 123 -506q0 -264 -138 -422t-378 -158q-121 0 -231 63.5t-152 170.5q-40 -108 -145 -171t-234 -63q-240 0 -378 158t-138 422q0 282 123 506h409q-36 -92 -68 -246.5t-32 -267.5q0 -252 145 -252q42 0 79.5 56.5t37.5 146.5v336h408v-336
q0 -90 36.5 -146.5t77.5 -56.5q146 0 146 252q0 113 -32 267.5t-69 246.5h410zM1193 1466l-180 -299h-195l66 299h309z" />
    <glyph glyph-name="afii10023" unicode="&#x401;" horiz-adv-x="1479" 
d="M149 1466h1214v-313h-760v-233h705v-299h-705v-289h782v-332h-1236v1466zM397 1809h260v-250h-260v250zM821 1809h263v-250h-263v250z" />
    <glyph glyph-name="afii10051" unicode="&#x402;" horiz-adv-x="2056" 
d="M967 901q200 72 364 72q314 0 479.5 -131t165.5 -375q0 -233 -161.5 -356t-471.5 -123q-57 0 -172 16l62 309q72 -14 110 -14q76 0 129.5 40.5t53.5 111.5q0 75 -62 115t-166 40q-152 0 -331 -74v-532h-453v1106h-461v360h1374v-360h-460v-205z" />
    <glyph glyph-name="afii10052" unicode="&#x403;" 
d="M1311 1106h-709v-1106h-452v1466h1161v-360zM663 1875h350l-323 -299h-195z" />
    <glyph glyph-name="afii10053" unicode="&#x404;" horiz-adv-x="1630" 
d="M1565 426q-68 -200 -238.5 -325.5t-488.5 -125.5q-353 0 -548.5 198.5t-195.5 569.5q0 356 197.5 552t564.5 196q494 0 676 -369l-408 -155q-67 184 -268 184q-258 0 -301 -283h444v-272h-442q37 -281 297 -281q223 0 285 226z" />
    <glyph glyph-name="afii10054" unicode="&#x405;" horiz-adv-x="1479" 
d="M71 485l431 27q14 -105 57 -160q70 -89 200 -89q97 0 149.5 45.5t52.5 105.5q0 57 -50 102t-232 85q-298 67 -425 178q-128 111 -128 283q0 113 65.5 213.5t197 158t360.5 57.5q281 0 428.5 -104.5t175.5 -332.5l-427 -25q-17 99 -71.5 144t-150.5 45q-79 0 -119 -33.5
t-40 -81.5q0 -35 33 -63q32 -29 152 -54q297 -64 425.5 -129.5t187 -162.5t58.5 -217q0 -141 -78 -260t-218 -180.5t-353 -61.5q-374 0 -518 144t-163 366z" />
    <glyph glyph-name="afii10055" unicode="&#x406;" horiz-adv-x="797" 
d="M168 1466h454v-1466h-454v1466z" />
    <glyph glyph-name="afii10056" unicode="&#x407;" horiz-adv-x="797" 
d="M168 1466h454v-1466h-454v1466zM56 1809h260v-250h-260v250zM480 1809h263v-250h-263v250z" />
    <glyph glyph-name="afii10057" unicode="&#x408;" 
d="M760 1466h454v-797q0 -251 -44.5 -382t-179 -222t-344.5 -91q-222 0 -344 60t-188.5 175.5t-78.5 285.5l433 59q1 -97 17 -144t54 -76q26 -19 74 -19q76 0 111.5 56.5t35.5 190.5v904z" />
    <glyph glyph-name="afii10058" unicode="&#x409;" horiz-adv-x="2478" 
d="M1497 901h242q324 0 489.5 -123t165.5 -360q0 -149 -93 -263t-268 -134.5t-210 -20.5h-779v1106h-354v-451q0 -278 -29.5 -408.5t-138 -191.5t-350.5 -61q-74 0 -170 16v297h68q92 0 130 40.5t38 148.5v970h1259v-565zM1497 315h232q213 0 213 154q0 135 -213 135h-232
v-289z" />
    <glyph glyph-name="afii10059" unicode="&#x40a;" horiz-adv-x="2478" 
d="M1497 901h242q324 0 489.5 -123t165.5 -360q0 -149 -93 -263t-268 -134.5t-210 -20.5h-779v592h-440v-592h-452v1466h452v-514h440v514h453v-565zM1497 315h232q213 0 213 154q0 135 -213 135h-232v-289z" />
    <glyph glyph-name="afii10060" unicode="&#x40b;" horiz-adv-x="1999" 
d="M1878 0h-453v389q0 223 -198 223q-147 0 -260 -106v-506h-453v1106h-461v360h1374v-360h-460v-246q199 115 397 115q224 0 369 -133t145 -363v-479z" />
    <glyph glyph-name="afii10061" unicode="&#x40c;" horiz-adv-x="1495" 
d="M1483 0h-510l-176 379q-63 134 -98 167.5t-97 33.5v-580h-452v1466h452v-563q59 3 92 42t103 224q51 137 103 196.5t169 85.5t367 26v-310h-23q-116 0 -172 -44t-92 -142.5t-77.5 -147t-113.5 -77.5q98 -32 171 -110.5t155 -244.5zM735 1871h350l-323 -299h-195z" />
    <glyph glyph-name="afii10062" unicode="&#x40e;" horiz-adv-x="1376" 
d="M12 1466h492l203 -604l200 604h461l-481 -1132q-59 -137 -103 -204.5t-130.5 -111t-237.5 -43.5q-80 0 -275 23v303q115 -12 168 -12q157 0 191 117zM1030 1872q-2 -145 -100.5 -223t-233.5 -78q-157 0 -246.5 79.5t-101.5 221.5h172q30 -107 168 -107q76 0 119.5 21.5
t58.5 85.5h164z" />
    <glyph glyph-name="afii10145" unicode="&#x40f;" horiz-adv-x="1706" 
d="M1554 0h-520v-319h-364v319h-518v1466h452v-1106h498v1106h452v-1466z" />
    <glyph glyph-name="afii10017" unicode="&#x410;" horiz-adv-x="1593" 
d="M1052 242h-516l-71 -242h-463l551 1466h494l551 -1466h-474zM957 559l-162 527l-161 -527h323z" />
    <glyph glyph-name="afii10018" unicode="&#x411;" horiz-adv-x="1593" 
d="M604 901h242q333 0 494 -117.5t161 -365.5q0 -203 -147.5 -310.5t-423.5 -107.5h-778v1466h1234v-297h-782v-268zM604 315h232q213 0 213 154q0 135 -213 135h-232v-289z" />
    <glyph glyph-name="afii10019" unicode="&#x412;" horiz-adv-x="1593" 
d="M151 1466h848q212 0 325.5 -105t113.5 -260q0 -130 -81 -223q-54 -62 -158 -98q158 -38 232.5 -130.5t74.5 -232.5q0 -114 -53 -205t-145 -144q-57 -33 -172 -48q-153 -20 -203 -20h-782v1466zM608 891h197q106 0 147.5 36.5t41.5 105.5q0 64 -41.5 100t-144.5 36h-200
v-278zM608 315h231q117 0 165 41.5t48 111.5q0 65 -47.5 104.5t-166.5 39.5h-230v-297z" />
    <glyph glyph-name="afii10020" unicode="&#x413;" 
d="M1311 1106h-709v-1106h-452v1466h1161v-360z" />
    <glyph glyph-name="afii10021" unicode="&#x414;" horiz-adv-x="1716" 
d="M1688 -319h-365v319h-936v-319h-364v657h151q127 355 127 801v327h1229v-1128h158v-657zM1077 338v768h-364v-19q0 -304 -103 -749h467z" />
    <glyph glyph-name="afii10022" unicode="&#x415;" horiz-adv-x="1479" 
d="M149 1466h1214v-313h-760v-233h705v-299h-705v-289h782v-332h-1236v1466z" />
    <glyph glyph-name="afii10024" unicode="&#x416;" horiz-adv-x="2224" 
d="M2210 0h-510l-176 379q-63 134 -98 167.5t-97 33.5v-580h-452v580q-63 0 -98 -33.5t-97 -167.5l-176 -379h-510l199 401q82 167 155.5 245.5t169.5 109.5q-71 29 -113 77.5t-77.5 147t-91.5 142.5t-172 44h-23v310q250 0 367 -26t168.5 -85.5t103.5 -196.5
q69 -185 102 -224t93 -42v563h452v-563q59 3 92 42t103 224q51 137 103 196.5t169 85.5t367 26v-310h-23q-116 0 -172 -44t-92 -142.5t-77.5 -147t-112.5 -77.5q97 -32 170 -110.5t155 -244.5z" />
    <glyph glyph-name="afii10025" unicode="&#x417;" horiz-adv-x="1409" 
d="M1069 797q264 -71 264 -332q0 -215 -165.5 -352.5t-467.5 -137.5q-516 0 -641 433l428 32q36 -153 205 -153q94 0 142.5 47t48.5 131q0 81 -61 131.5t-167 50.5h-123v262h97q87 0 136.5 45.5t49.5 126.5q0 119 -149 119q-154 0 -179 -137l-405 47q99 381 592 381
q273 0 428 -106t155 -285q0 -216 -188 -303z" />
    <glyph glyph-name="afii10026" unicode="&#x418;" horiz-adv-x="1706" 
d="M1553 1466v-1466h-426v805l-549 -805h-427v1466h427v-811l552 811h423z" />
    <glyph glyph-name="afii10027" unicode="&#x419;" horiz-adv-x="1706" 
d="M1553 1466v-1466h-426v805l-549 -805h-427v1466h427v-811l552 811h423zM1221 1827q-21 -126 -121.5 -203.5t-239.5 -77.5q-138 0 -239 78t-121 203h174q42 -125 182 -125q150 0 191 125h174z" />
    <glyph glyph-name="afii10028" unicode="&#x41a;" horiz-adv-x="1495" 
d="M1483 0h-510l-176 379q-63 134 -98 167.5t-97 33.5v-580h-452v1466h452v-563q59 3 92 42t103 224q51 137 103 196.5t169 85.5t367 26v-310h-23q-116 0 -172 -44t-92 -142.5t-77.5 -147t-113.5 -77.5q98 -32 171 -110.5t155 -244.5z" />
    <glyph glyph-name="afii10029" unicode="&#x41b;" horiz-adv-x="1647" 
d="M1497 0h-453v1106h-354v-451q0 -278 -29.5 -408.5t-138 -191.5t-350.5 -61q-74 0 -170 16v297h68q92 0 130 40.5t38 148.5v970h1259v-1466z" />
    <glyph glyph-name="afii10030" unicode="&#x41c;" horiz-adv-x="1933" 
d="M145 1466h596l230 -892l229 892h594v-1466h-370v1118l-287 -1118h-335l-286 1118v-1118h-371v1466z" />
    <glyph glyph-name="afii10031" unicode="&#x41d;" horiz-adv-x="1706" 
d="M152 1466h453v-513h495v513h455v-1466h-455v593h-495v-593h-453v1466z" />
    <glyph glyph-name="afii10032" unicode="&#x41e;" horiz-adv-x="1706" 
d="M93 732q0 359 200 559t557 200q366 0 564 -196.5t198 -550.5q0 -257 -86.5 -421.5t-250 -256t-407.5 -91.5q-248 0 -410.5 79t-263.5 250t-101 428zM546 730q0 -222 82.5 -319t224.5 -97q146 0 226 95t80 341q0 207 -83.5 302.5t-226.5 95.5q-137 0 -220 -97t-83 -321z
" />
    <glyph glyph-name="afii10033" unicode="&#x41f;" horiz-adv-x="1706" 
d="M1554 0h-452v1106h-498v-1106h-452v1466h1402v-1466z" />
    <glyph glyph-name="afii10034" unicode="&#x420;" horiz-adv-x="1479" 
d="M148 1466h753q246 0 368.5 -117t122.5 -333q0 -222 -133.5 -347t-407.5 -125h-248v-544h-455v1466zM603 841h111q131 0 184 45.5t53 116.5q0 69 -46 117t-173 48h-129v-327z" />
    <glyph glyph-name="afii10035" unicode="&#x421;" horiz-adv-x="1593" 
d="M1126 599l397 -120q-40 -167 -126 -279t-213.5 -169t-324.5 -57q-239 0 -390.5 69.5t-261.5 244.5t-110 448q0 364 193.5 559.5t547.5 195.5q277 0 435.5 -112t235.5 -344l-400 -89q-21 67 -44 98q-38 52 -93 80t-123 28q-154 0 -236 -124q-62 -92 -62 -289
q0 -244 74 -334.5t208 -90.5q130 0 196.5 73t96.5 212z" />
    <glyph glyph-name="afii10036" unicode="&#x422;" horiz-adv-x="1479" 
d="M47 1466h1377v-362h-462v-1104h-453v1104h-462v362z" />
    <glyph glyph-name="afii10037" unicode="&#x423;" horiz-adv-x="1376" 
d="M12 1466h492l203 -604l200 604h461l-481 -1132q-59 -137 -103 -204.5t-130.5 -111t-237.5 -43.5q-80 0 -275 23v303q115 -12 168 -12q157 0 191 117z" />
    <glyph glyph-name="afii10038" unicode="&#x424;" horiz-adv-x="1892" 
d="M1153 1354q668 -70 668 -600q0 -541 -668 -602v-152h-412v156q-667 57 -667 598q0 531 667 600v112h412v-112zM1153 459q107 31 166 110.5t59 190.5q0 106 -60.5 190.5t-164.5 118.5v-610zM741 455v606q-101 -29 -163 -114.5t-62 -194.5q0 -102 61.5 -183t163.5 -114z
" />
    <glyph glyph-name="afii10039" unicode="&#x425;" horiz-adv-x="1593" 
d="M49 1466h499l260 -451l252 451h494l-456 -710l499 -756h-509l-289 471l-290 -471h-506l506 764z" />
    <glyph glyph-name="afii10040" unicode="&#x426;" horiz-adv-x="1761" 
d="M1712 -319h-364v319h-1196v1466h452v-1106h498v1106h452v-1128h158v-657z" />
    <glyph glyph-name="afii10041" unicode="&#x427;" horiz-adv-x="1647" 
d="M1497 0h-453v545q-208 -115 -395 -115q-224 0 -369 132.5t-145 363.5v540h453v-450q0 -107 51 -165t147 -58q178 0 258 106v567h453v-1466z" />
    <glyph glyph-name="afii10042" unicode="&#x428;" horiz-adv-x="2273" 
d="M2124 0h-1972v1466h452v-1106h305v1106h453v-1106h309v1106h453v-1466z" />
    <glyph glyph-name="afii10043" unicode="&#x429;" horiz-adv-x="2331" 
d="M2281 -319h-364v319h-1765v1466h452v-1106h305v1106h453v-1106h309v1106h453v-1128h157v-657z" />
    <glyph glyph-name="afii10044" unicode="&#x42a;" horiz-adv-x="2052" 
d="M1071 891h242q655 0 655 -473q0 -149 -93 -263t-268 -134.5t-210 -20.5h-779v1169h-567v297h1020v-575zM1071 315h232q213 0 213 154q0 145 -213 145h-232v-299z" />
    <glyph glyph-name="afii10045" unicode="&#x42b;" horiz-adv-x="2216" 
d="M604 901h242q333 0 494 -117.5t161 -365.5q0 -203 -147.5 -310.5t-423.5 -107.5h-778v1466h452v-565zM604 315h232q213 0 213 154q0 135 -213 135h-232v-289zM1612 1466h454v-1466h-454v1466z" />
    <glyph glyph-name="afii10046" unicode="&#x42c;" horiz-adv-x="1585" 
d="M604 901h242q333 0 494 -117.5t161 -365.5q0 -203 -147.5 -310.5t-423.5 -107.5h-778v1466h452v-565zM604 315h232q213 0 213 154q0 135 -213 135h-232v-289z" />
    <glyph glyph-name="afii10047" unicode="&#x42d;" horiz-adv-x="1630" 
d="M96 1122q182 369 676 369q367 0 564.5 -196t197.5 -552q0 -371 -195 -569.5t-548 -198.5q-318 0 -489 125.5t-239 325.5l426 115q62 -226 285 -226q260 0 297 281h-442v272h444q-43 283 -301 283q-201 0 -268 -184z" />
    <glyph glyph-name="afii10048" unicode="&#x42e;" horiz-adv-x="2372" 
d="M780 952q59 263 247 401t486 138q367 0 564.5 -196t197.5 -552q0 -371 -195 -569.5t-548 -198.5q-371 0 -553 176.5t-213 440.5h-162v-592h-452v1466h452v-514h176zM1516 315q151 0 229 97.5t78 337.5q0 401 -310 401q-303 0 -303 -422q0 -414 306 -414z" />
    <glyph glyph-name="afii10049" unicode="&#x42f;" horiz-adv-x="1597" 
d="M1446 0v1466h-755q-210 0 -321 -36t-179 -133.5t-68 -237.5q0 -122 52 -210.5t143 -143.5q58 -35 159 -58q-81 -27 -118 -54q-25 -18 -72.5 -77t-63.5 -91l-219 -425h512l242 448q46 87 82 113q49 34 111 34h40v-595h455zM991 872h-191q-31 0 -120 20q-45 9 -73.5 46
t-28.5 85q0 71 45 109t169 38h199v-298z" />
    <glyph glyph-name="afii10065" unicode="&#x430;" 
d="M494 718l-389 41q22 102 63.5 160.5t119.5 101.5q56 31 154 48t212 17q183 0 294 -20.5t185 -85.5q52 -45 82 -127.5t30 -157.5v-469q0 -75 9.5 -117.5t41.5 -108.5h-382q-23 41 -30 62.5t-14 67.5q-80 -77 -159 -110q-108 -44 -251 -44q-190 0 -288.5 88t-98.5 217
q0 121 71 199t262 116q229 46 297 64.5t144 48.5q0 75 -31 105t-109 30q-100 0 -150 -32q-39 -25 -63 -94zM847 504q-84 -30 -175 -53q-124 -33 -157 -65q-34 -33 -34 -75q0 -48 33.5 -78.5t98.5 -30.5q68 0 126.5 33t83 80.5t24.5 123.5v65z" />
    <glyph glyph-name="afii10066" unicode="&#x431;" 
d="M479 1030q73 55 201 55q299 0 455.5 -157.5t156.5 -392.5q0 -233 -155.5 -396.5t-456.5 -163.5q-300 0 -453 164.5t-153 536.5q0 344 132 556t380 220l123 4q165 7 182 43h323q0 -291 -327 -303q-221 -8 -300 -43.5t-108 -122.5zM682 254q98 0 150.5 72t52.5 206
q0 133 -54 204t-145 71q-101 0 -153 -77.5t-52 -201.5q0 -129 51.5 -201.5t149.5 -72.5z" />
    <glyph glyph-name="afii10067" unicode="&#x432;" horiz-adv-x="1260" 
d="M924 565q121 -12 192.5 -80t71.5 -182q0 -152 -100 -227.5t-359 -75.5h-606v1061h655q178 0 271.5 -68t93.5 -190q0 -86 -61 -149.5t-158 -84.5v-4zM530 657h103q102 0 102 93q0 75 -108 75h-97v-168zM530 250h134q50 0 81 23t31 67q0 96 -112 96h-134v-186z" />
    <glyph glyph-name="afii10068" unicode="&#x433;" horiz-adv-x="1040" 
d="M997 764h-452v-764h-408v1061h860v-297z" />
    <glyph glyph-name="afii10069" unicode="&#x434;" horiz-adv-x="1356" 
d="M1331 -303h-282v303h-752v-303h-283v600h103q112 200 112 524v240h990v-764h112v-600zM811 297v467h-195v-12q0 -221 -96 -455h291z" />
    <glyph glyph-name="afii10070" unicode="&#x435;" 
d="M1302 430h-816q11 -98 53 -146q59 -69 154 -69q60 0 114 30q33 19 71 67l401 -37q-92 -160 -222 -229.5t-373 -69.5q-211 0 -332 59.5t-200.5 189t-79.5 304.5q0 249 159.5 403t440.5 154q228 0 360 -69t201 -200t69 -341v-46zM888 625q-12 118 -63.5 169t-135.5 51
q-97 0 -155 -77q-37 -48 -47 -143h401z" />
    <glyph glyph-name="afii10072" unicode="&#x436;" horiz-adv-x="1892" 
d="M1882 0h-459l-143 293q-35 73 -59.5 89.5t-71.5 16.5v-399h-408v399q-46 0 -70.5 -16t-60.5 -90l-143 -293h-459l180 319q72 128 124 169.5t159 50.5q-53 10 -89 40t-75 102t-82 88.5t-131 16.5h-18v289q209 0 299.5 -17.5t140 -72t95.5 -158.5t65 -124.5t65 -24.5v383
h408v-383q46 4 65 24.5t65 124.5t95.5 158.5t140.5 72t300 17.5v-289h-19q-87 0 -130.5 -16.5t-82.5 -88.5t-75 -102t-89 -40q102 -9 154.5 -47t128.5 -173z" />
    <glyph glyph-name="afii10073" unicode="&#x437;" horiz-adv-x="1389" 
d="M1106 549q95 -30 151 -93.5t56 -140.5q0 -166 -159 -253t-464 -87q-256 0 -402.5 94.5t-211.5 284.5l387 43q20 -56 82.5 -99.5t142.5 -43.5q205 0 205 102q0 35 -39 56.5t-102 21.5h-177v209h181q53 0 97 22t44 56q0 38 -51.5 62t-143.5 24q-90 0 -152 -37.5t-79 -89.5
l-375 51q55 181 201 267.5t403 86.5q267 0 418.5 -87t151.5 -220q0 -160 -164 -229z" />
    <glyph glyph-name="afii10074" unicode="&#x438;" horiz-adv-x="1446" 
d="M1309 0h-385v522l-400 -522h-387v1061h385v-529l404 529h383v-1061z" />
    <glyph glyph-name="afii10075" unicode="&#x439;" horiz-adv-x="1446" 
d="M1309 0h-385v522l-400 -522h-387v1061h385v-529l404 529h383v-1061zM1051 1491q-3 -145 -101 -223t-233 -78q-158 0 -247 79.5t-101 221.5h172q30 -107 168 -107q76 0 119.5 21.5t58.5 85.5h164z" />
    <glyph glyph-name="afii10076" unicode="&#x43a;" horiz-adv-x="1315" 
d="M1305 0h-459l-156 293q-37 70 -72.5 88t-87.5 18v-399h-407v1061h407v-383q50 5 74 33t69.5 123t81.5 139t92 66t140 28t250 6v-289h-18q-82 0 -125 -6.5t-69 -27.5t-60 -86t-56.5 -90.5t-66.5 -34.5q85 -8 131 -36.5t139 -183.5z" />
    <glyph glyph-name="afii10077" unicode="&#x43b;" horiz-adv-x="1466" 
d="M1343 0h-407v764h-309v-445q0 -178 -72.5 -264t-222.5 -86q-170 0 -305 31v301q72 -22 110 -22q82 0 82 122v660h1124v-1061z" />
    <glyph glyph-name="afii10078" unicode="&#x43c;" horiz-adv-x="1733" 
d="M1595 0h-344v666l-252 -666h-245l-273 666v-666h-344v1061h486l254 -610l233 610h485v-1061z" />
    <glyph glyph-name="afii10079" unicode="&#x43d;" horiz-adv-x="1460" 
d="M1323 0h-408v401h-370v-401h-408v1061h408v-363h370v363h408v-1061z" />
    <glyph glyph-name="afii10080" unicode="&#x43e;" 
d="M73 528q0 243 164 400.5t443 157.5q319 0 482 -185q131 -149 131 -367q0 -245 -162.5 -401.5t-449.5 -156.5q-256 0 -414 130q-194 161 -194 422zM481 529q0 -142 57.5 -210t144.5 -68q88 0 144.5 67t56.5 215q0 138 -57 205.5t-141 67.5q-89 0 -147 -68.5t-58 -208.5z
" />
    <glyph glyph-name="afii10081" unicode="&#x43f;" 
d="M1243 0h-407v764h-310v-764h-407v1061h1124v-1061z" />
    <glyph glyph-name="afii10082" unicode="&#x440;" 
d="M125 -404v1466h381v-157q79 99 145 134q89 47 197 47q213 0 329.5 -163t116.5 -403q0 -265 -127 -404.5t-321 -139.5q-94 0 -171.5 32t-138.5 95v-507h-411zM533 528q0 -126 53 -187t134 -61q71 0 119 58.5t48 198.5q0 129 -50 189.5t-122 60.5q-78 0 -130 -61t-52 -198z
" />
    <glyph glyph-name="afii10083" unicode="&#x441;" 
d="M915 415l387 -44q-32 -121 -105 -209.5t-186.5 -137.5t-288.5 -49q-169 0 -281.5 31.5t-193.5 102t-127 165.5t-46 252q0 164 56 273q41 80 112 143.5t146 94.5q119 49 305 49q260 0 396.5 -93t191.5 -272l-383 -51q-18 68 -65.5 102.5t-127.5 34.5q-101 0 -163.5 -72.5
t-62.5 -219.5q0 -131 62 -199t158 -68q80 0 134.5 41t81.5 126z" />
    <glyph glyph-name="afii10084" unicode="&#x442;" horiz-adv-x="1040" 
d="M1018 764h-295v-764h-408v764h-295v297h998v-297z" />
    <glyph glyph-name="afii10085" unicode="&#x443;" horiz-adv-x="1251" 
d="M5 1062h430l219 -707l203 707h401l-421 -1135q-72 -194 -147 -262q-106 -96 -323 -96q-88 0 -272 24l-32 284q88 -28 196 -28q72 0 116.5 33t75.5 118z" />
    <glyph glyph-name="afii10086" unicode="&#x444;" horiz-adv-x="2075" 
d="M1241 954q122 131 311 131q205 0 326 -158.5t121 -412.5q0 -246 -121 -392.5t-328 -146.5q-196 0 -309 127v-508h-407v506q-128 -125 -312 -125q-204 0 -325 158.5t-121 413.5q0 246 121 392t327 146q195 0 310 -135v516h407v-512zM1425 276q80 0 123 67t43 179
q0 262 -172 262q-75 0 -128.5 -57t-53.5 -201q0 -107 48 -178.5t140 -71.5zM655 276q76 0 129.5 57.5t53.5 201.5q0 107 -48 178t-141 71q-79 0 -122.5 -66.5t-43.5 -178.5q0 -263 172 -263z" />
    <glyph glyph-name="afii10087" unicode="&#x445;" 
d="M31 1062h483l169 -296l196 296h449l-362 -506l388 -556h-475l-196 342l-231 -342h-441l386 556z" />
    <glyph glyph-name="afii10088" unicode="&#x446;" horiz-adv-x="1413" 
d="M1397 -303h-283v303h-997v1061h407v-764h310v764h407v-764h156v-600z" />
    <glyph glyph-name="afii10089" unicode="&#x447;" horiz-adv-x="1356" 
d="M1239 0h-408v391q-154 -92 -333 -92q-383 0 -383 408v354h407v-291q0 -72 33 -113t92 -41q114 0 184 93v352h408v-1061z" />
    <glyph glyph-name="afii10090" unicode="&#x448;" horiz-adv-x="1944" 
d="M1794 0h-1677v1061h407v-764h228v764h407v-764h227v764h408v-1061z" />
    <glyph glyph-name="afii10091" unicode="&#x449;" horiz-adv-x="1970" 
d="M1950 -303h-283v303h-1550v1061h407v-764h228v764h407v-764h227v764h408v-764h156v-600z" />
    <glyph glyph-name="afii10092" unicode="&#x44a;" horiz-adv-x="1579" 
d="M848 684h186q471 0 471 -344q0 -340 -458 -340h-607v764h-432v297h840v-377zM848 250h133q50 0 81.5 23t31.5 67q0 96 -113 96h-133v-186z" />
    <glyph glyph-name="afii10093" unicode="&#x44b;" horiz-adv-x="1862" 
d="M545 684h186q471 0 471 -344q0 -340 -459 -340h-606v1061h408v-377zM545 250h133q50 0 81.5 23t31.5 67q0 96 -113 96h-133v-186zM1318 1062h407v-1062h-407v1062z" />
    <glyph glyph-name="afii10094" unicode="&#x44c;" horiz-adv-x="1272" 
d="M545 684h186q471 0 471 -344q0 -340 -459 -340h-606v1061h408v-377zM545 250h133q50 0 81.5 23t31.5 67q0 96 -113 96h-133v-186z" />
    <glyph glyph-name="afii10095" unicode="&#x44d;" 
d="M84 721q57 187 198 275.5t390 88.5q185 0 306 -48.5t217.5 -174t96.5 -336.5q0 -249 -152 -400t-497 -151q-471 0 -580 400l388 43q49 -164 217 -164q171 0 209 170h-314v209h307q-44 174 -211 174q-160 0 -192 -137z" />
    <glyph glyph-name="afii10096" unicode="&#x44e;" horiz-adv-x="1997" 
d="M729 698q55 185 206 286t376 101q298 0 455 -157.5t157 -392.5q0 -233 -156 -396.5t-456 -163.5q-237 0 -391 113t-201 313h-174v-401h-408v1061h408v-363h184zM1313 254q98 0 150.5 72t52.5 206q0 133 -54 204t-145 71q-101 0 -153 -77.5t-52 -201.5q0 -129 51 -201.5
t150 -72.5z" />
    <glyph glyph-name="afii10097" unicode="&#x44f;" horiz-adv-x="1278" 
d="M1155 0h-407v412h-15q-43 0 -67.5 -23.5t-49.5 -71.5l-163 -317h-451l158 307q70 137 184 150q-129 20 -196.5 107.5t-67.5 191.5q0 103 51.5 182.5t150 101t248.5 21.5h625v-1061zM748 653v166h-127q-90 0 -112 -21.5t-22 -60.5q0 -84 148 -84h113z" />
    <glyph glyph-name="afii10071" unicode="&#x451;" 
d="M1302 430h-816q11 -98 53 -146q59 -69 154 -69q60 0 114 30q33 19 71 67l401 -37q-92 -160 -222 -229.5t-373 -69.5q-211 0 -332 59.5t-200.5 189t-79.5 304.5q0 249 159.5 403t440.5 154q228 0 360 -69t201 -200t69 -341v-46zM888 625q-12 118 -63.5 169t-135.5 51
q-97 0 -155 -77q-37 -48 -47 -143h401zM340 1446h260v-250h-260v250zM764 1446h263v-250h-263v250z" />
    <glyph glyph-name="afii10099" unicode="&#x452;" horiz-adv-x="1384" 
d="M1264 53q0 -166 -21 -255t-99.5 -148.5t-234.5 -59.5q-124 0 -293 35l62 295q54 -10 72 -10q50 0 78 35.5t28 142.5v496q0 184 -143 184q-79 0 -122.5 -58.5t-43.5 -199.5v-510h-408v1186h-119v186h119v94h408v-94h244v-186h-244v-260q143 159 360 159q177 0 267 -106.5
t90 -302.5v-623z" />
    <glyph glyph-name="afii10100" unicode="&#x453;" horiz-adv-x="909" 
d="M127 1062h381v-174q55 113 113.5 155.5t144.5 42.5q90 0 197 -56l-126 -290q-72 30 -114 30q-80 0 -124 -66q-63 -93 -63 -348v-356h-409v1062zM512 1491h350l-323 -299h-195z" />
    <glyph glyph-name="afii10101" unicode="&#x454;" 
d="M1303 375q-109 -400 -580 -400q-345 0 -497 151t-152 400q0 200 85 321t207.5 179.5t327.5 58.5q249 0 390 -88.5t198 -275.5l-383 -51q-32 137 -192 137q-167 0 -211 -174h307v-209h-314q38 -170 209 -170q168 0 217 164z" />
    <glyph glyph-name="afii10102" unicode="&#x455;" horiz-adv-x="1251" 
d="M51 294l404 38q25 -72 70 -103t120 -31q82 0 127 35q35 26 35 65q0 44 -46 68q-33 17 -175 42q-212 37 -294.5 68.5t-139 106.5t-56.5 171q0 105 61 181t168 113.5t287 37.5q190 0 280.5 -29t151 -90t100.5 -165l-386 -38q-15 51 -50 75q-48 32 -116 32
q-69 0 -100.5 -24.5t-31.5 -59.5q0 -39 40 -59t174 -36q203 -23 302 -64t151.5 -117t52.5 -167q0 -92 -55.5 -179t-175 -138.5t-325.5 -51.5q-291 0 -414.5 83t-158.5 236z" />
    <glyph glyph-name="afii10103" unicode="&#x456;" horiz-adv-x="682" 
d="M138 1466h407v-277h-407v277zM138 1062h407v-1062h-407v1062z" />
    <glyph glyph-name="afii10104" unicode="&#x457;" horiz-adv-x="682" 
d="M138 1062h407v-1062h-407v1062zM-2 1446h260v-250h-260v250zM422 1446h263v-250h-263v250z" />
    <glyph glyph-name="afii10105" unicode="&#x458;" horiz-adv-x="682" 
d="M139 1466h408v-280h-408v280zM139 1062h408v-1030q0 -197 -28.5 -279t-105.5 -133t-220 -51q-118 0 -293 35l61 296q49 -10 72 -10q52 0 79 35.5t27 141.5v995z" />
    <glyph glyph-name="afii10106" unicode="&#x459;" horiz-adv-x="2071" 
d="M1343 684h187q471 0 471 -344q0 -340 -459 -340h-606v764h-309v-445q0 -178 -72.5 -264t-222.5 -86q-170 0 -305 31v301q72 -22 110 -22q82 0 82 122v660h1124v-377zM1343 250h134q50 0 81 23t31 67q0 96 -112 96h-134v-186z" />
    <glyph glyph-name="afii10107" unicode="&#x45a;" horiz-adv-x="2095" 
d="M1364 684h186q471 0 471 -344q0 -340 -458 -340h-607v401h-411v-401h-408v1061h408v-363h411v363h408v-377zM1364 250h133q50 0 81.5 23t31.5 67q0 96 -113 96h-133v-186z" />
    <glyph glyph-name="afii10108" unicode="&#x45b;" horiz-adv-x="1384" 
d="M1264 0h-408v584q0 184 -143 184q-79 0 -122.5 -58.5t-43.5 -199.5v-510h-408v1186h-119v186h119v94h408v-94h244v-186h-244v-260q143 159 360 159q177 0 267 -106.5t90 -302.5v-676z" />
    <glyph glyph-name="afii10109" unicode="&#x45c;" horiz-adv-x="1315" 
d="M1305 0h-459l-156 293q-37 70 -72.5 88t-87.5 18v-399h-407v1061h407v-383q50 5 74 33t69.5 123t81.5 139t92 66t140 28t250 6v-289h-18q-82 0 -125 -6.5t-69 -27.5t-60 -86t-56.5 -90.5t-66.5 -34.5q85 -8 131 -36.5t139 -183.5zM675 1491h350l-323 -299h-195z" />
    <glyph glyph-name="afii10110" unicode="&#x45e;" horiz-adv-x="1251" 
d="M5 1062h430l219 -707l203 707h401l-421 -1135q-72 -194 -147 -262q-106 -96 -323 -96q-88 0 -272 24l-32 284q88 -28 196 -28q72 0 116.5 33t75.5 118zM952 1491q-2 -145 -100 -223t-234 -78q-157 0 -246.5 79.5t-101.5 221.5h172q30 -107 168 -107q77 0 120 21.5
t58 85.5h164z" />
    <glyph glyph-name="afii10193" unicode="&#x45f;" 
d="M1243 0h-422v-303h-282v303h-420v1061h407v-764h310v764h407v-1061z" />
    <glyph glyph-name="afii10050" unicode="&#x490;" horiz-adv-x="1137" 
d="M1102 1106h-500v-1106h-452v1466h587v297h365v-657z" />
    <glyph glyph-name="afii10098" unicode="&#x491;" horiz-adv-x="958" 
d="M924 764h-379v-764h-408v1061h525v303h262v-600z" />
    <glyph glyph-name="Wgrave" unicode="&#x1e80;" horiz-adv-x="2048" 
d="M-1 1466h430l155 -819l226 819h429l227 -819l155 819h428l-323 -1466h-444l-257 923l-256 -923h-444zM753 1871h347l164 -298h-192z" />
    <glyph glyph-name="wgrave" unicode="&#x1e81;" horiz-adv-x="1933" 
d="M3 1062h394l171 -669l216 669h367l224 -669l171 669h391l-391 -1062h-362l-215 639l-208 -639h-364zM677 1491h347l164 -298h-192z" />
    <glyph glyph-name="Wacute" unicode="&#x1e82;" horiz-adv-x="2048" 
d="M-1 1466h430l155 -819l226 819h429l227 -819l155 819h428l-323 -1466h-444l-257 923l-256 -923h-444zM979 1867h350l-323 -299h-195z" />
    <glyph glyph-name="wacute" unicode="&#x1e83;" horiz-adv-x="1933" 
d="M3 1062h394l171 -669l216 669h367l224 -669l171 669h391l-391 -1062h-362l-215 639l-208 -639h-364zM947 1491h350l-323 -299h-195z" />
    <glyph glyph-name="Wdieresis" unicode="&#x1e84;" horiz-adv-x="2048" 
d="M-1 1466h430l155 -819l226 819h429l227 -819l155 819h428l-323 -1466h-444l-257 923l-256 -923h-444zM686 1818h260v-250h-260v250zM1110 1818h263v-250h-263v250z" />
    <glyph glyph-name="wdieresis" unicode="&#x1e85;" horiz-adv-x="1933" 
d="M3 1062h394l171 -669l216 669h367l224 -669l171 669h391l-391 -1062h-362l-215 639l-208 -639h-364zM622 1446h260v-250h-260v250zM1046 1446h263v-250h-263v250z" />
    <glyph glyph-name="Ygrave" unicode="&#x1ef2;" horiz-adv-x="1593" 
d="M2 1466h503l296 -495l296 495h500l-570 -852v-614h-454v614zM469 1867h347l164 -298h-192z" />
    <glyph glyph-name="ygrave" unicode="&#x1ef3;" horiz-adv-x="1251" 
d="M5 1062h430l219 -707l203 707h401l-421 -1135q-72 -194 -147 -262q-106 -96 -323 -96q-88 0 -272 24l-32 284q88 -28 196 -28q72 0 116.5 33t75.5 118zM341 1491h347l164 -298h-192z" />
    <glyph glyph-name="afii00208" unicode="&#x2015;" horiz-adv-x="1536" 
d="M-12 646h1559v-222h-1559v222z" />
    <glyph glyph-name="quotereversed" unicode="&#x201b;" horiz-adv-x="569" 
d="M505 1491v-404h-208q5 -73 48.5 -126.5t159.5 -107.5l-95 -178q-186 81 -263 188.5t-77 292.5v335h435z" />
    <glyph glyph-name="uni203E" unicode="&#x203e;" horiz-adv-x="1024" 
d="M1036 1768h-1048v102h1048v-102z" />
    <glyph glyph-name="lira" unicode="&#x20a4;" 
d="M1356 63q-165 -88 -336 -88q-93 0 -224 35.5t-176.5 45.5t-91.5 10q-135 0 -286 -91l-127 283q155 114 198 244h-209v139h207q-6 75 -16 102h-191v140h150q-41 99 -41 194q0 147 82.5 246t183.5 133.5t269 34.5q111 0 210 -20t195.5 -104.5t132.5 -258.5l-383 -59
q-45 176 -151 176q-58 0 -93.5 -38.5t-35.5 -107.5q0 -84 43 -196h305v-140h-260q0 -43 -6 -102h266v-139h-293q-25 -105 -68 -154l4 -4q53 14 93 14q51 0 77 -7t101 -23.5t135 -16.5q100 0 201 49z" />
    <glyph glyph-name="afii61352" unicode="&#x2116;" horiz-adv-x="2755" 
d="M1554 0h-428l-548 805v-805h-426v1466h423l553 -811v811h426v-1466zM2154 1262q239 0 364.5 -127t125.5 -314q0 -188 -124.5 -318t-365.5 -130q-231 0 -358 129t-127 313q0 190 128 318.5t357 128.5zM2157 610q72 0 106.5 49t34.5 160q0 109 -33 157t-104 48
q-75 0 -109.5 -48t-34.5 -161q0 -205 140 -205zM2607 45h-868v242h868v-242z" />
    <glyph glyph-name="estimated" unicode="&#x212e;" horiz-adv-x="1229" 
d="M321 531v-371q120 -121 298 -121q254 0 395 246l72 -43q-118 -170 -231.5 -223t-235.5 -53q-232 0 -380.5 158.5t-148.5 406.5q0 252 149.5 408.5t379.5 156.5q214 0 366 -142t163 -423h-827zM917 605v297q-124 121 -300 121q-174 0 -296 -121v-297h596z" />
    <glyph glyph-name="oneeighth" unicode="&#x215b;" horiz-adv-x="2048" 
d="M643 1491v-750h-260v448q-56 -33 -101.5 -49.5t-124.5 -32.5v207q184 45 288 177h198zM1329 1491h215l-922 -1544h-213zM1760 363q129 -40 129 -168q0 -119 -99.5 -181.5t-283.5 -62.5q-183 0 -282 62t-99 182q0 127 127 168q-105 43 -105 149q0 102 95.5 155.5
t263.5 53.5q166 0 262 -53.5t96 -155.5q0 -105 -104 -149zM1506 426q54 0 86 21t32 53q0 40 -27.5 56.5t-88.5 16.5q-121 0 -121 -73q0 -32 32.5 -53t86.5 -21zM1506 102q131 0 131 101q0 45 -35 71.5t-96 26.5q-131 0 -131 -98q0 -101 131 -101z" />
    <glyph glyph-name="threeeighths" unicode="&#x215c;" horiz-adv-x="2048" 
d="M349 1258l-258 40q49 94 121 137q96 56 256 56q180 0 272 -67q65 -48 65 -124q0 -53 -36 -98q-25 -31 -90 -62q80 -26 118 -77t38 -118q0 -94 -73 -149q-99 -75 -303 -75q-191 0 -293 78q-59 45 -87 134l254 29q16 -48 45 -69t77 -21q56 0 87.5 27.5t31.5 65.5
q0 51 -56 79q-32 16 -149 18l28 141q86 0 116 22t30 55q0 26 -20.5 43.5t-60.5 17.5q-41 0 -74 -23q-24 -17 -39 -60zM1329 1491h215l-922 -1544h-213zM1768 363q129 -40 129 -168q0 -119 -99.5 -181.5t-283.5 -62.5q-183 0 -282 62t-99 182q0 127 127 168q-105 43 -105 149
q0 102 95.5 155.5t263.5 53.5q166 0 262 -53.5t96 -155.5q0 -105 -104 -149zM1514 426q54 0 86 21t32 53q0 40 -27.5 56.5t-88.5 16.5q-121 0 -121 -73q0 -32 32.5 -53t86.5 -21zM1514 102q131 0 131 101q0 45 -35 71.5t-96 26.5q-131 0 -131 -98q0 -101 131 -101z" />
    <glyph glyph-name="fiveeighths" unicode="&#x215d;" horiz-adv-x="2048" 
d="M347 1204q75 33 178 33q133 0 224 -65t91 -173q0 -129 -95.5 -202.5t-274.5 -73.5q-309 0 -375 207l246 35q8 -43 44 -68t83 -25q56 0 92.5 31t36.5 78q0 50 -35.5 78t-98.5 28q-33 0 -73.5 -16t-63.5 -41l-196 29l65 428h604v-172h-434zM1335 1491h215l-922 -1544h-213z
M1764 363q129 -40 129 -168q0 -119 -99.5 -181.5t-283.5 -62.5q-183 0 -282 62t-99 182q0 127 127 168q-105 43 -105 149q0 102 95.5 155.5t263.5 53.5q166 0 262 -53.5t96 -155.5q0 -105 -104 -149zM1510 426q54 0 86 21t32 53q0 40 -27.5 56.5t-88.5 16.5q-121 0 -121 -73
q0 -32 32.5 -53t86.5 -21zM1510 102q131 0 131 101q0 45 -35 71.5t-96 26.5q-131 0 -131 -98q0 -101 131 -101z" />
    <glyph glyph-name="seveneighths" unicode="&#x215e;" horiz-adv-x="2048" 
d="M795 1348q-225 -208 -260 -627h-262q38 312 271 594h-412v176h663v-143zM1271 1491h215l-922 -1544h-213zM1760 363q129 -40 129 -168q0 -119 -99.5 -181.5t-283.5 -62.5q-183 0 -282 62t-99 182q0 127 127 168q-105 43 -105 149q0 102 95.5 155.5t263.5 53.5
q166 0 262 -53.5t96 -155.5q0 -105 -104 -149zM1506 426q54 0 86 21t32 53q0 40 -27.5 56.5t-88.5 16.5q-121 0 -121 -73q0 -32 32.5 -53t86.5 -21zM1506 102q131 0 131 101q0 45 -35 71.5t-96 26.5q-131 0 -131 -98q0 -101 131 -101z" />
    <glyph glyph-name="house" unicode="&#x2302;" horiz-adv-x="1229" 
d="M153 0v634l461 519l462 -519v-634h-923zM234 81h761v519l-381 427l-380 -427v-519z" />
    <glyph glyph-name="revlogicalnot" unicode="&#x2310;" horiz-adv-x="1352" 
d="M1218 1133v-325h-766v-492h-326v817h1092z" />
    <glyph glyph-name="integraltp" unicode="&#x2320;" horiz-adv-x="1229" 
d="M687 -515h-145v1813q0 206 86 322.5t206 116.5q59 0 98.5 -28t39.5 -81q0 -41 -26.5 -66.5t-61.5 -25.5q-34 0 -55.5 13.5t-42.5 47.5q-24 37 -47 37q-29 0 -40.5 -24.5t-11.5 -153.5v-1971z" />
    <glyph glyph-name="integralbt" unicode="&#x2321;" horiz-adv-x="1229" 
d="M542 1737h145v-1811q0 -207 -86 -324t-206 -117q-74 0 -106 34.5t-32 74.5q0 41 26.5 66.5t60.5 25.5q35 0 56.5 -14t42.5 -47q24 -37 47 -37q29 0 40.5 24t11.5 154v1971z" />
    <glyph glyph-name="SF100000" unicode="&#x2500;" horiz-adv-x="1454" 
d="M1475 534h-1496v175h1496v-175z" />
    <glyph glyph-name="SF110000" unicode="&#x2502;" horiz-adv-x="1270" 
d="M452 -621v2485h175v-2485h-175z" />
    <glyph glyph-name="SF010000" unicode="&#x250c;" horiz-adv-x="1454" 
d="M1476 709v-175h-661v-1155h-175v1330h836z" />
    <glyph glyph-name="SF030000" unicode="&#x2510;" horiz-adv-x="1454" 
d="M639 534h-660v175h835v-1330h-175v1155z" />
    <glyph glyph-name="SF020000" unicode="&#x2514;" horiz-adv-x="1454" 
d="M640 534v1330h175v-1155h661v-175h-836z" />
    <glyph glyph-name="SF040000" unicode="&#x2518;" horiz-adv-x="1454" 
d="M814 534h-835v175h660v1155h175v-1330z" />
    <glyph glyph-name="SF080000" unicode="&#x251c;" horiz-adv-x="1454" 
d="M640 -621v2485h175v-1155h661v-175h-661v-1155h-175z" />
    <glyph glyph-name="SF090000" unicode="&#x2524;" horiz-adv-x="1454" 
d="M639 -621v1155h-660v175h660v1155h175v-2485h-175z" />
    <glyph glyph-name="SF060000" unicode="&#x252c;" horiz-adv-x="1454" 
d="M639 534h-660v175h1496v-175h-661v-1155h-175v1155z" />
    <glyph glyph-name="SF070000" unicode="&#x2534;" horiz-adv-x="1454" 
d="M1475 534h-1496v175h660v1155h175v-1155h661v-175z" />
    <glyph glyph-name="SF050000" unicode="&#x253c;" horiz-adv-x="1454" 
d="M639 534h-660v175h660v1155h175v-1155h661v-175h-661v-1155h-175v1155z" />
    <glyph glyph-name="SF430000" unicode="&#x2550;" horiz-adv-x="1454" 
d="M1475 724h-1496v175h1496v-175zM1475 344h-1496v175h1496v-175z" />
    <glyph glyph-name="SF240000" unicode="&#x2551;" horiz-adv-x="1454" 
d="M830 -621v2485h175v-2485h-175zM450 -621v2485h175v-2485h-175z" />
    <glyph glyph-name="SF510000" unicode="&#x2552;" horiz-adv-x="1454" 
d="M640 -621v1520h836v-175h-661v-205h661v-175h-661v-965h-175z" />
    <glyph glyph-name="SF520000" unicode="&#x2553;" horiz-adv-x="1454" 
d="M450 -621v1330h1026v-175h-471v-1155h-175v1140h-205v-1140h-175z" />
    <glyph glyph-name="SF390000" unicode="&#x2554;" horiz-adv-x="1454" 
d="M625 -621h-175v1520h1025v-175h-850v-1345zM1005 344v-965h-175v1140h645v-175h-470z" />
    <glyph glyph-name="SF220000" unicode="&#x2555;" horiz-adv-x="1454" 
d="M639 344h-660v175h660v205h-660v175h835v-1520h-175v965z" />
    <glyph glyph-name="SF210000" unicode="&#x2556;" horiz-adv-x="1454" 
d="M449 -621v1155h-470v175h1025v-1330h-175v1155h-205v-1155h-175z" />
    <glyph glyph-name="SF250000" unicode="&#x2557;" horiz-adv-x="1454" 
d="M829 -621v1345h-850v175h1025v-1520h-175zM449 344h-470v175h645v-1140h-175v965z" />
    <glyph glyph-name="SF500000" unicode="&#x2558;" horiz-adv-x="1454" 
d="M640 344v1520h175v-965h661v-175h-661v-205h661v-175h-836z" />
    <glyph glyph-name="SF490000" unicode="&#x2559;" horiz-adv-x="1454" 
d="M1475 534h-1025v1330h175v-1155h205v1155h175v-1155h470v-175z" />
    <glyph glyph-name="SF380000" unicode="&#x255a;" horiz-adv-x="1454" 
d="M625 1864v-1345h850v-175h-1025v1520h175zM1005 899h470v-175h-645v1140h175v-965z" />
    <glyph glyph-name="SF280000" unicode="&#x255b;" horiz-adv-x="1454" 
d="M814 344h-835v175h660v205h-660v175h660v965h175v-1520z" />
    <glyph glyph-name="SF270000" unicode="&#x255c;" horiz-adv-x="1454" 
d="M1004 534h-1025v175h470v1155h175v-1155h205v1155h175v-1330z" />
    <glyph glyph-name="SF260000" unicode="&#x255d;" horiz-adv-x="1454" 
d="M829 1864h175v-1520h-1025v175h850v1345zM449 899v965h175v-1140h-645v175h470z" />
    <glyph glyph-name="SF360000" unicode="&#x255e;" horiz-adv-x="1454" 
d="M640 -621v2485h175v-965h661v-175h-661v-205h661v-175h-661v-965h-175z" />
    <glyph glyph-name="SF370000" unicode="&#x255f;" horiz-adv-x="1454" 
d="M830 -621v2485h175v-1155h471v-175h-471v-1155h-175zM450 -621v2485h175v-2485h-175z" />
    <glyph glyph-name="SF420000" unicode="&#x2560;" horiz-adv-x="1454" 
d="M450 -621v2485h175v-2485h-175zM830 724v1140h175v-965h471v-175h-646zM830 -621v1140h646v-175h-471v-965h-175z" />
    <glyph glyph-name="SF190000" unicode="&#x2561;" horiz-adv-x="1454" 
d="M639 344h-660v175h660v205h-660v175h660v965h175v-2485h-175v965z" />
    <glyph glyph-name="SF200000" unicode="&#x2562;" horiz-adv-x="1454" 
d="M449 -621v1155h-470v175h470v1155h175v-2485h-175zM829 -621v2485h175v-2485h-175z" />
    <glyph glyph-name="SF230000" unicode="&#x2563;" horiz-adv-x="1454" 
d="M829 -621v2485h175v-2485h-175zM624 1864v-1140h-645v175h470v965h175zM449 344h-470v175h645v-1140h-175v965z" />
    <glyph glyph-name="SF470000" unicode="&#x2564;" horiz-adv-x="1454" 
d="M1475 724h-1496v175h1496v-175zM639 344h-660v175h1496v-175h-661v-965h-175v965z" />
    <glyph glyph-name="SF480000" unicode="&#x2565;" horiz-adv-x="1454" 
d="M449 -621v1155h-470v175h1496v-175h-471v-1155h-175v1140h-205v-1140h-175z" />
    <glyph glyph-name="SF410000" unicode="&#x2566;" horiz-adv-x="1454" 
d="M1475 724h-1496v175h1496v-175zM449 344h-470v175h645v-1140h-175v965zM829 -621v1140h646v-175h-471v-965h-175z" />
    <glyph glyph-name="SF450000" unicode="&#x2567;" horiz-adv-x="1454" 
d="M1475 724h-1496v175h660v965h175v-965h661v-175zM1475 344h-1496v175h1496v-175z" />
    <glyph glyph-name="SF460000" unicode="&#x2568;" horiz-adv-x="1454" 
d="M1475 534h-1496v175h470v1155h175v-1155h205v1155h175v-1155h471v-175z" />
    <glyph glyph-name="SF400000" unicode="&#x2569;" horiz-adv-x="1454" 
d="M624 724h-645v175h470v965h175v-1140zM1475 724h-646v1140h175v-965h471v-175zM1475 344h-1496v175h1496v-175z" />
    <glyph glyph-name="SF540000" unicode="&#x256a;" horiz-adv-x="1454" 
d="M639 344h-660v175h660v205h-660v175h660v965h175v-965h661v-175h-661v-205h661v-175h-661v-965h-175v965z" />
    <glyph glyph-name="SF530000" unicode="&#x256b;" horiz-adv-x="1454" 
d="M449 -621v1155h-470v175h470v1155h175v-1155h205v1155h175v-1155h471v-175h-471v-1155h-175v1155h-205v-1155h-175z" />
    <glyph glyph-name="SF440000" unicode="&#x256c;" horiz-adv-x="1454" 
d="M1005 899h470v-175h-645v1140h175v-965zM449 899v965h175v-1140h-645v175h470zM449 344h-470v175h645v-1140h-175v965zM1005 344v-965h-175v1140h645v-175h-470z" />
    <glyph glyph-name="upblock" unicode="&#x2580;" horiz-adv-x="1454" 
d="M1475 621h-1496v1243h1496v-1243z" />
    <glyph glyph-name="dnblock" unicode="&#x2584;" horiz-adv-x="1454" 
d="M1475 -621h-1496v1242h1496v-1242z" />
    <glyph glyph-name="block" unicode="&#x2588;" horiz-adv-x="1454" 
d="M-21 -621v2485h1496v-2485h-1496z" />
    <glyph glyph-name="lfblock" unicode="&#x258c;" horiz-adv-x="1454" 
d="M-21 -621v2485h748v-2485h-748z" />
    <glyph glyph-name="rtblock" unicode="&#x2590;" horiz-adv-x="1454" 
d="M727 -621v2485h748v-2485h-748z" />
    <glyph glyph-name="ltshade" unicode="&#x2591;" horiz-adv-x="1454" 
d="M104 1864h125v-125h-125v125zM602 1864h125v-125h-125v125zM1101 1864h125v-125h-125v125zM353 1615h125v-125h-125v125zM852 1615h124v-125h-124v125zM1350 1615h125v-125h-125v125zM1101 1366h125v-125h-125v125zM602 1366h125v-125h-125v125zM104 1366h125v-125h-125
v125zM1350 1116h125v-124h-125v124zM852 1116h124v-124h-124v124zM353 1116h125v-124h-125v124zM104 867h125v-125h-125v125zM602 867h125v-125h-125v125zM1101 867h125v-125h-125v125zM1350 618h125v-125h-125v125zM852 618h124v-125h-124v125zM353 618h125v-125h-125v125z
M104 369h125v-125h-125v125zM602 369h125v-125h-125v125zM1101 369h125v-125h-125v125zM353 119h125v-124h-125v124zM852 119h124v-124h-124v124zM1350 119h125v-124h-125v124zM1101 -130h125v-125h-125v125zM602 -130h125v-125h-125v125zM104 -130h125v-125h-125v125z
M353 -379h125v-125h-125v125zM852 -379h124v-125h-124v125zM1350 -379h125v-125h-125v125z" />
    <glyph glyph-name="shade" unicode="&#x2592;" horiz-adv-x="1451" 
d="M121 1864h120v-125h-120v125zM362 1864h120v-125h-120v125zM603 1864h121v-125h-121v125zM844 1864h121v-125h-121v125zM1086 1864h120v-125h-120v125zM1327 1864h120v-125h-120v125zM0 1615h121v-125h-121v125zM241 1615h121v-125h-121v125zM482 1615h121v-125h-121v125
zM724 1615h120v-125h-120v125zM965 1615h121v-125h-121v125zM1206 1615h121v-125h-121v125zM121 1366h120v-125h-120v125zM362 1366h120v-125h-120v125zM603 1366h121v-125h-121v125zM844 1366h121v-125h-121v125zM1086 1366h120v-125h-120v125zM1327 1366h120v-125h-120
v125zM241 1116h121v-124h-121v124zM482 1116h121v-124h-121v124zM724 1116h120v-124h-120v124zM965 1116h121v-124h-121v124zM1206 1116h121v-124h-121v124zM0 1116h121v-124h-121v124zM121 867h120v-125h-120v125zM362 867h120v-125h-120v125zM603 867h121v-125h-121v125z
M844 867h121v-125h-121v125zM1086 867h120v-125h-120v125zM1327 867h120v-125h-120v125zM0 618h121v-125h-121v125zM482 618h121v-125h-121v125zM724 618h120v-125h-120v125zM965 618h121v-125h-121v125zM1206 618h121v-125h-121v125zM241 618h121v-125h-121v125zM1327 369
h120v-125h-120v125zM1086 369h120v-125h-120v125zM844 369h121v-125h-121v125zM603 369h121v-125h-121v125zM362 369h120v-125h-120v125zM121 369h120v-125h-120v125zM0 119h121v-124h-121v124zM241 119h121v-124h-121v124zM482 119h121v-124h-121v124zM724 119h120v-124
h-120v124zM965 119h121v-124h-121v124zM1206 119h121v-124h-121v124zM1327 -130h120v-125h-120v125zM1086 -130h120v-125h-120v125zM844 -130h121v-125h-121v125zM603 -130h121v-125h-121v125zM362 -130h120v-125h-120v125zM121 -130h120v-125h-120v125zM0 -379h121v-125
h-121v125zM241 -379h121v-125h-121v125zM482 -379h121v-125h-121v125zM724 -379h120v-125h-120v125zM965 -379h121v-125h-121v125zM1206 -379h121v-125h-121v125z" />
    <glyph glyph-name="dkshade" unicode="&#x2593;" horiz-adv-x="1495" 
d="M1495 1490v-374h-124v-124h124v-374h-124v-125h124v-374h-124v-124h124v-374h-124v-125h124v-124h-1495v373h125v125h-125v374h125v125h-125v373h125v125h-125v374h125v125h-125v373h125v125h124v-125h125v125h124v-125h125v125h125v-125h124v125h125v-125h125v125h124
v-125h125v125h124v-249h-124v-125h124zM125 1615v-125h124v125h-124zM374 1615v-125h124v125h-124zM623 1615v-125h125v125h-125zM872 1615v-125h125v125h-125zM1122 1615v-125h124v125h-124zM1371 1366h-125v-125h125v125zM1122 1366h-125v-125h125v125zM872 1366h-124
v-125h124v125zM623 1366h-125v-125h125v125zM374 1366h-125v-125h125v125zM125 1116v-124h124v124h-124zM374 1116v-124h124v124h-124zM623 1116v-124h125v124h-125zM872 1116v-124h125v124h-125zM1122 1116v-124h124v124h-124zM374 867h-125v-125h125v125zM498 867v-125
h125v125h-125zM748 867v-125h124v125h-124zM997 867v-125h125v125h-125zM1246 867v-125h125v125h-125zM125 618v-125h124v125h-124zM623 618v-125h125v125h-125zM498 493v125h-124v-125h124zM872 618v-125h125v125h-125zM1122 618v-125h124v125h-124zM1371 244v125h-125
v-125h125zM1122 244v125h-125v-125h125zM872 244v125h-124v-125h124zM623 244v125h-125v-125h125zM374 244v125h-125v-125h125zM125 119v-124h124v124h-124zM374 119v-124h124v124h-124zM623 119v-124h125v124h-125zM872 119v-124h125v124h-125zM1122 119v-124h124v124h-124
zM1371 -255v125h-125v-125h125zM1122 -255v125h-125v-125h125zM872 -255v125h-124v-125h124zM623 -255v125h-125v-125h125zM374 -255v125h-125v-125h125zM125 -379v-125h124v125h-124zM374 -379v-125h124v125h-124zM623 -379v-125h125v125h-125zM872 -379v-125h125v125h-125
zM1122 -379v-125h124v125h-124z" />
    <glyph glyph-name="filledbox" unicode="&#x25a0;" horiz-adv-x="1229" 
d="M142 944h944v-944h-944v944z" />
    <glyph glyph-name="filledrect" unicode="&#x25ac;" horiz-adv-x="2048" 
d="M0 703h2047v-386h-2047v386z" />
    <glyph glyph-name="triagup" unicode="&#x25b2;" horiz-adv-x="2027" 
d="M304 0l710 1419l710 -1419h-1420z" />
    <glyph glyph-name="triagrt" unicode="&#x25ba;" horiz-adv-x="2027" 
d="M288 1417l1451 -724l-1451 -724v1448z" />
    <glyph glyph-name="triagdn" unicode="&#x25bc;" horiz-adv-x="2027" 
d="M1724 1388l-710 -1419l-710 1419h1420z" />
    <glyph glyph-name="triaglf" unicode="&#x25c4;" horiz-adv-x="2027" 
d="M1739 1417v-1448l-1451 724z" />
    <glyph glyph-name="circle" unicode="&#x25cb;" horiz-adv-x="1229" 
d="M1055 578q0 -182 -129.5 -311.5t-310.5 -129.5q-182 0 -311.5 129.5t-129.5 311.5t129.5 311t310.5 129q183 0 312 -129t129 -311zM979 578q0 151 -106.5 257.5t-257.5 106.5t-258 -107.5t-107 -256.5t107 -257t258 -108q150 0 257 107.5t107 257.5z" />
    <glyph glyph-name="invbullet" unicode="&#x25d8;" horiz-adv-x="1229" 
d="M124 0v980h980v-980h-980zM816 490q0 83 -59 142.5t-143 59.5q-82 0 -142 -59t-60 -143q0 -83 59.5 -142.5t142.5 -59.5q84 0 143 60t59 142z" />
    <glyph glyph-name="invcircle" unicode="&#x25d9;" horiz-adv-x="1229" 
d="M38 0v1155h1155v-1155h-1155zM1056 577q0 181 -129.5 311t-310.5 130q-183 0 -312 -130t-129 -311q0 -182 128.5 -311t312.5 -129q181 0 310.5 129.5t129.5 310.5zM980 577q0 -150 -107 -257t-257 -107q-151 0 -258 107t-107 257q0 151 107.5 258t257.5 107t257 -106.5
t107 -258.5z" />
    <glyph glyph-name="smileface" unicode="&#x263a;" horiz-adv-x="2089" 
d="M1682 519q0 -263 -187.5 -450.5t-449.5 -187.5q-264 0 -451 186.5t-187 451.5q0 262 187.5 449.5t450.5 187.5t450 -187.5t187 -449.5zM1590 519q0 224 -160.5 384t-384.5 160q-225 0 -385 -160t-160 -384q0 -225 160 -385t385 -160q224 0 384.5 160t160.5 385zM881 650
q0 -33 -23.5 -57t-57.5 -24q-33 0 -57 24t-24 57q0 34 24 57.5t57 23.5q34 0 57.5 -23.5t23.5 -57.5zM1370 650q0 -33 -23.5 -57t-57.5 -24q-33 0 -57 24t-24 57q0 34 24 57.5t57 23.5q34 0 57.5 -23.5t23.5 -57.5zM751 313l62 36q79 -144 232 -144t231 144l63 -36
q-104 -195 -294 -195q-191 0 -294 195z" />
    <glyph glyph-name="invsmileface" unicode="&#x263b;" horiz-adv-x="2150" 
d="M1713 519q0 -263 -187.5 -450.5t-449.5 -187.5q-264 0 -451 186.5t-187 451.5q0 262 187.5 449.5t450.5 187.5t450 -187.5t187 -449.5zM912 650q0 34 -23.5 57.5t-57.5 23.5q-33 0 -57 -23.5t-24 -57.5q0 -33 24 -57t57 -24q34 0 57.5 24t23.5 57zM1401 650
q0 34 -23.5 57.5t-57.5 23.5q-33 0 -57 -23.5t-24 -57.5q0 -33 24 -57t57 -24q34 0 57.5 24t23.5 57zM782 313q103 -195 294 -195q190 0 294 195l-63 36q-78 -144 -231 -144t-232 144z" />
    <glyph glyph-name="sun" unicode="&#x263c;" horiz-adv-x="1884" 
d="M905 1621h76v-337q191 -7 350 -140l287 283l54 -55l-286 -286q141 -174 143 -353h336v-69h-336q-14 -191 -143 -351l286 -289l-54 -51l-287 280q-167 -125 -350 -139v-337h-76v337q-204 25 -347 139l-294 -280l-49 51l284 289q-125 152 -144 351h-336v69h336
q14 199 144 353l-284 286l49 55l294 -283q178 130 347 140v337zM1453 699q0 211 -151 361.5t-362 150.5t-361.5 -150.5t-150.5 -361.5t150.5 -362t361.5 -151t362 151t151 362z" />
    <glyph glyph-name="female" unicode="&#x2640;" horiz-adv-x="1126" 
d="M589 481v-365h417v-54h-417v-399h-54v399h-418v54h418v365q-83 0 -192 53.5t-182.5 168.5t-73.5 253q0 196 139.5 336t336.5 140q196 0 336 -140t140 -336q0 -185 -127.5 -323.5t-322.5 -151.5zM990 955q0 176 -125 301t-302 125q-176 0 -301.5 -125.5t-125.5 -300.5
q0 -176 125.5 -301.5t301.5 -125.5t301.5 125.5t125.5 301.5z" />
    <glyph glyph-name="male" unicode="&#x2642;" horiz-adv-x="1372" 
d="M1111 1372l29 -10q35 -359 161 -615l-25 -16q-149 188 -222 415l-295 -635q110 -42 201 -162t91 -268q0 -188 -133 -304t-326 -116q-203 0 -344.5 134t-141.5 323q0 188 130.5 316t306.5 128q76 0 170 -33l293 636q-214 -90 -457 -104v26q171 53 259.5 99.5t302.5 185.5z
M535 516q-155 0 -270.5 -112t-115.5 -278q0 -160 115 -272.5t276 -112.5q162 0 273.5 113.5t111.5 267.5q0 164 -117 279t-273 115z" />
    <glyph glyph-name="spade" unicode="&#x2660;" horiz-adv-x="1085" 
d="M544 1231q18 -82 64.5 -169t203.5 -230q122 -111 169.5 -181t47.5 -155q0 -93 -65 -157t-154 -64q-155 0 -255 190q0 -230 101.5 -325.5t276.5 -102.5l7 -37h-792l7 37q177 0 280.5 102t103.5 293q0 11 -1 33q-90 -190 -261 -190q-91 0 -155.5 65t-64.5 155
q0 92 52.5 165t136.5 141q261 215 298 430z" />
    <glyph glyph-name="club" unicode="&#x2663;" horiz-adv-x="1352" 
d="M1102 0h-848l8 34q153 33 219.5 68.5t125 138.5t58.5 228l-1 42q-54 -116 -143 -177t-185 -61q-114 0 -195.5 80.5t-81.5 199.5q0 112 72.5 193.5t169.5 81.5q63 0 163 -51q-67 107 -67 182q0 113 79 192.5t197 79.5q115 0 197 -78t82 -189q0 -94 -69 -187q106 53 162 53
q105 0 176 -81t71 -192q0 -120 -81 -201.5t-193 -81.5q-78 0 -167 49.5t-165 187.5q4 -157 48 -250.5t122.5 -144.5t237.5 -82z" />
    <glyph glyph-name="heart" unicode="&#x2665;" horiz-adv-x="1208" 
d="M606 -24q-32 122 -92.5 228.5t-275.5 389.5q-101 133 -140 212t-39 163q0 110 74 185.5t183 75.5q206 0 290 -251q34 127 113 189.5t172 62.5q109 0 183.5 -75t74.5 -175q0 -88 -40.5 -183t-173.5 -262q-285 -360 -329 -560z" />
    <glyph glyph-name="diamond" unicode="&#x2666;" horiz-adv-x="1045" 
d="M520 1231q193 -323 461 -627q-52 -52 -214 -265t-247 -363q-101 190 -457 628q324 383 457 627z" />
    <glyph glyph-name="musicalnote" unicode="&#x266a;" horiz-adv-x="1577" 
d="M925 1535h60q164 -100 366 -309t202 -285q0 -16 -20 -44.5t-39 -28.5q-28 0 -63 44q-55 66 -195 190t-242 188l26 -1374q0 -122 -71.5 -193t-217 -131.5t-291.5 -60.5q-190 0 -302.5 97t-112.5 230q0 159 162.5 279t372.5 120q192 0 396 -94z" />
    <glyph glyph-name="musicalnotedbl" unicode="&#x266b;" horiz-adv-x="2048" 
d="M832 1195l934 291v-1301q0 -148 -37.5 -221t-125 -121t-200.5 -48q-145 0 -212.5 77.5t-67.5 185.5q0 117 90 202t234 85q84 0 200 -50v850l-699 -217v-981q0 -123 -29.5 -203t-121 -136.5t-216.5 -56.5q-124 0 -200.5 71t-76.5 190q0 129 93 210.5t230 81.5
q95 0 205 -54v1145z" />
    <glyph glyph-name="glyph664" horiz-adv-x="682" 
d="M116 -165l30 118q94 23 176 23q171 0 236 -58t65 -137q0 -48 -29.5 -99t-105.5 -82t-202 -31q-114 0 -268 26v123q104 -20 221 -20q86 0 116.5 23t30.5 60q0 29 -25 50t-78 21q-71 0 -167 -17z" />
    <glyph glyph-name="uni2075" unicode="&#x2075;" horiz-adv-x="819" 
d="M287 1204q75 33 178 33q133 0 224 -65t91 -173q0 -129 -95.5 -202.5t-274.5 -73.5q-309 0 -375 207l246 35q8 -43 44 -68t83 -25q56 0 92.5 31t36.5 78q0 50 -35.5 78t-98.5 28q-33 0 -73.5 -16t-63.5 -41l-196 29l65 428h604v-172h-434z" />
    <glyph glyph-name="uni2077" unicode="&#x2077;" horiz-adv-x="819" 
d="M743 1348q-225 -208 -260 -627h-262q38 312 271 594h-412v176h663v-143z" />
    <glyph glyph-name="uni2078" unicode="&#x2078;" horiz-adv-x="819" 
d="M664 1133q129 -40 129 -168q0 -119 -99.5 -181.5t-283.5 -62.5q-183 0 -282 62t-99 182q0 127 127 168q-105 43 -105 149q0 102 95.5 155.5t263.5 53.5q166 0 262 -53.5t96 -155.5q0 -105 -104 -149zM410 1196q54 0 86 21t32 53q0 40 -27.5 56.5t-88.5 16.5
q-121 0 -121 -73q0 -32 32.5 -53t86.5 -21zM410 872q131 0 131 101q0 45 -35 71.5t-96 26.5q-131 0 -131 -98q0 -101 131 -101z" />
    <glyph glyph-name="currency" unicode="&#xa4;" horiz-adv-x="1352" 
d="M305 1147l144 -142q57 29 112.5 43t109.5 14t110 -14t113 -43l140 142l211 -209l-141 -143q26 -54 39 -108.5t13 -109.5q0 -54 -13 -110t-39 -114l141 -140l-211 -213l-140 143q-61 -27 -117.5 -40.5t-108.5 -13.5t-107 13.5t-112 40.5l-137 -143l-214 213l141 140
q-27 52 -40.5 106t-13.5 110q0 57 13.5 113.5t40.5 112.5l-141 143zM863 574q0 80 -56 136t-136 56q-79 0 -135 -56t-56 -136q0 -79 56 -135t135 -56q80 0 136 56t56 135z" />
    <glyph glyph-name="Scommaaccent" unicode="&#x218;" horiz-adv-x="1479" 
d="M71 485l431 27q14 -105 57 -160q70 -89 200 -89q97 0 149.5 45.5t52.5 105.5q0 57 -50 102t-232 85q-298 67 -425 178q-128 111 -128 283q0 113 65.5 213.5t197 158t360.5 57.5q281 0 428.5 -104.5t175.5 -332.5l-427 -25q-17 99 -71.5 144t-150.5 45q-79 0 -119 -33.5
t-40 -81.5q0 -35 33 -63q32 -29 152 -54q297 -64 425.5 -129.5t187 -162.5t58.5 -217q0 -141 -78 -260t-218 -180.5t-353 -61.5q-374 0 -518 144t-163 366zM606 -121h270v-196q0 -108 -44.5 -170.5t-154.5 -110.5l-71 104q121 54 122 137h-122v236z" />
    <glyph glyph-name="scommaaccent" unicode="&#x219;" horiz-adv-x="1251" 
d="M51 294l404 38q25 -72 70 -103t120 -31q82 0 127 35q35 26 35 65q0 44 -46 68q-33 17 -175 42q-212 37 -294.5 68.5t-139 106.5t-56.5 171q0 105 61 181t168 113.5t287 37.5q190 0 280.5 -29t151 -90t100.5 -165l-386 -38q-15 51 -50 75q-48 32 -116 32
q-69 0 -100.5 -24.5t-31.5 -59.5q0 -39 40 -59t174 -36q203 -23 302 -64t151.5 -117t52.5 -167q0 -92 -55.5 -179t-175 -138.5t-325.5 -51.5q-291 0 -414.5 83t-158.5 236zM481 -121h270v-196q0 -108 -44.5 -170.5t-154.5 -110.5l-71 104q121 54 122 137h-122v236z" />
    <glyph glyph-name="uni021A" unicode="&#x21a;" horiz-adv-x="1479" 
d="M47 1466h1377v-362h-462v-1104h-453v1104h-462v362zM597 -121h270v-196q0 -108 -44.5 -170.5t-154.5 -110.5l-71 104q121 54 122 137h-122v236z" />
    <glyph glyph-name="uni021B" unicode="&#x21b;" horiz-adv-x="909" 
d="M614 1466v-404h224v-297h-224v-377q0 -68 13 -90q20 -34 70 -34q45 0 126 26l30 -281q-151 -33 -282 -33q-152 0 -224 39t-106.5 118.5t-34.5 257.5v374h-150v297h150v195zM352 -121h270v-196q0 -108 -44.5 -170.5t-154.5 -110.5l-71 104q121 54 122 137h-122v236z" />
    <glyph glyph-name="iacute.locl" horiz-adv-x="682" 
d="M138 1466h407v-277h-407v277zM138 1062h407v-1062h-407v1062zM331 1862h350l-323 -299h-195z" />
    <glyph glyph-name="zero.oldstyle" horiz-adv-x="1314" 
d="M657 1105q141 0 249 -38.5t180.5 -111t110 -178t37.5 -239.5t-39.5 -238.5t-113.5 -176.5t-181.5 -110t-242.5 -38q-140 0 -247.5 38t-181 110t-111 176.5t-37.5 238.5t39.5 239.5t114 178t181.5 111t242 38.5zM657 245q173 0 173 295q0 149 -42.5 222t-131.5 73
q-172 0 -172 -295t173 -295z" />
    <glyph glyph-name="one.oldstyle" horiz-adv-x="1041" 
d="M70 858q63 12 128.5 28.5t127 42.5t116 64t96.5 92h338v-1085h-414v672q-178 -108 -392 -145v331z" />
    <glyph glyph-name="two.oldstyle" 
d="M84 738q21 96 63 165.5t114 114.5t178.5 66.5t257.5 21.5q277 0 415.5 -81.5t138.5 -252.5q0 -51 -15.5 -103.5t-58.5 -101.5t-120 -92.5t-200 -77.5q-91 -24 -142.5 -39.5t-77 -25.5t-32 -16.5t-7.5 -12.5h673v-303h-1222q9 92 34.5 169t76.5 142t132 119.5t202 102.5
q120 47 190 80.5t106 58t45.5 44.5t9.5 40q0 42 -37 64.5t-112 22.5q-85 0 -135 -35t-72 -122z" />
    <glyph glyph-name="three.oldstyle" horiz-adv-x="1344" 
d="M469 657l-385 69q48 184 184.5 282t386.5 98q287 0 415 -107t128 -269q0 -95 -52 -172t-157 -135q85 -21 130 -49q73 -45 113.5 -118.5t40.5 -175.5q0 -128 -67 -245.5t-193 -181t-331 -63.5q-200 0 -315.5 47t-190 137.5t-114.5 227.5l407 54q24 -123 74.5 -170.5
t128.5 -47.5q82 0 136.5 60t54.5 160q0 102 -52.5 158t-142.5 56q-48 0 -132 -24l21 291q34 -5 53 -5q80 0 133.5 51t53.5 121q0 67 -40 107t-110 40q-72 0 -117 -43.5t-61 -152.5z" />
    <glyph glyph-name="four.oldstyle" horiz-adv-x="1386" 
d="M766 0h-717v335l717 766h355v-795h209v-306h-209v-385h-355v385zM766 306v427l-383 -427h383z" />
    <glyph glyph-name="five.oldstyle" horiz-adv-x="1352" 
d="M244 1082h967v-325h-655l-35 -220q68 32 134.5 48t131.5 16q220 0 357 -133t137 -335q0 -142 -70.5 -273t-200 -200t-331.5 -69q-145 0 -248.5 27.5t-176 82t-117.5 123.5t-75 172l412 45q15 -99 70 -150.5t131 -51.5q85 0 140.5 64.5t55.5 192.5q0 131 -56 192t-149 61
q-59 0 -114 -29q-41 -21 -90 -76l-347 50z" />
    <glyph glyph-name="six.oldstyle" horiz-adv-x="1392" 
d="M1269 1136l-405 -50q-16 85 -53.5 120t-92.5 35q-99 0 -154 -100q-40 -72 -59 -308q73 74 150 109.5t178 35.5q196 0 331.5 -140t135.5 -355q0 -145 -68.5 -265t-190 -181.5t-304.5 -61.5q-220 0 -353 75t-212.5 239.5t-79.5 435.5q0 397 167 581.5t463 184.5
q175 0 276.5 -40.5t168.5 -118.5t102 -196zM519 483q0 -119 60 -186.5t147 -67.5q80 0 134 61t54 182q0 124 -56 189t-139 65q-85 0 -142.5 -63t-57.5 -180z" />
    <glyph glyph-name="seven.oldstyle" horiz-adv-x="1303" 
d="M64 1082h1189v-275q-155 -140 -259 -303q-126 -198 -199 -441q-58 -189 -78 -447h-406q48 359 151 602t326 520h-724v344z" />
    <glyph glyph-name="eight.oldstyle" horiz-adv-x="1350" 
d="M322 788q-96 51 -140 114q-60 86 -60 198q0 184 173 301q135 90 357 90q294 0 434.5 -112t140.5 -282q0 -99 -56 -185q-42 -64 -132 -124q119 -57 177.5 -151t58.5 -208q0 -110 -50.5 -205.5t-124 -147.5t-183 -76.5t-233.5 -24.5q-233 0 -356 55t-187 162t-64 239
q0 129 60 218.5t185 138.5zM505 1076q0 -76 47.5 -122.5t126.5 -46.5q70 0 115 46t45 119q0 76 -47 123.5t-120 47.5q-74 0 -120.5 -46.5t-46.5 -120.5zM483 445q0 -97 59 -158.5t135 -61.5q73 0 131 62.5t58 158.5q0 97 -58.5 159t-135.5 62q-76 0 -132.5 -60t-56.5 -162z
" />
    <glyph glyph-name="nine.oldstyle" horiz-adv-x="1396" 
d="M123 -56l405 51q16 -85 54 -120t93 -35q98 0 153 99q40 73 60 309q-73 -75 -150 -110t-178 -35q-197 0 -332.5 140t-135.5 354q0 146 69 266t190 181.5t304 61.5q220 0 353 -75.5t212.5 -240t79.5 -434.5q0 -397 -167 -581.5t-463 -184.5q-175 0 -276 40.5t-168 118.5
t-103 195zM873 598q0 119 -60 186.5t-146 67.5q-81 0 -134.5 -61t-53.5 -183q0 -123 55.5 -188t138.5 -65q86 0 143 63t57 180z" />
    <glyph glyph-name="zero.pnum" 
d="M84 739q0 418 150.5 585t458.5 167q148 0 243 -36.5t155 -95t94.5 -123t55.5 -150.5q41 -164 41 -342q0 -399 -135 -584t-465 -185q-185 0 -299 59t-187 173q-53 81 -82.5 221.5t-29.5 310.5zM488 738q0 -280 49.5 -382.5t143.5 -102.5q62 0 107.5 43.5t67 137.5
t21.5 293q0 292 -49.5 392.5t-148.5 100.5q-101 0 -146 -102.5t-45 -379.5z" />
    <glyph glyph-name="one.pnum" horiz-adv-x="1113" 
d="M919 1491v-1491h-412v977q-100 -76 -193.5 -123t-234.5 -90v334q208 67 323 161t180 232h337z" />
    <glyph glyph-name="two.pnum" horiz-adv-x="1376" 
d="M1276 0h-1222q21 181 127.5 340.5t399.5 376.5q179 133 229 202t50 131q0 67 -49.5 114.5t-124.5 47.5q-78 0 -127.5 -49t-66.5 -173l-408 33q24 172 88 268.5t180.5 148t322.5 51.5q215 0 334.5 -49t188 -150.5t68.5 -227.5q0 -134 -78.5 -256t-285.5 -268
q-123 -85 -164.5 -119t-97.5 -89h636v-332z" />
    <glyph glyph-name="three.pnum" horiz-adv-x="1380" 
d="M483 1042l-385 69q48 184 184.5 282t386.5 98q287 0 415 -107t128 -269q0 -95 -52 -172t-157 -135q85 -21 130 -49q73 -45 113.5 -118.5t40.5 -175.5q0 -128 -67 -245.5t-193 -181t-331 -63.5q-200 0 -315.5 47t-190 137.5t-114.5 227.5l407 54q24 -123 74.5 -170.5
t128.5 -47.5q82 0 136.5 60t54.5 160q0 102 -52.5 158t-142.5 56q-48 0 -132 -24l21 291q34 -5 53 -5q80 0 133.5 51t53.5 121q0 67 -40 107t-110 40q-72 0 -117 -43.5t-61 -152.5z" />
    <glyph glyph-name="four.pnum" horiz-adv-x="1416" 
d="M802 274h-742v335l742 882h355v-901h184v-316h-184v-274h-355v274zM802 590v461l-392 -461h392z" />
    <glyph glyph-name="five.pnum" horiz-adv-x="1371" 
d="M247 1466h967v-325h-655l-35 -220q68 32 134.5 48t131.5 16q220 0 357 -133t137 -335q0 -142 -70.5 -273t-200 -200t-331.5 -69q-145 0 -248.5 27.5t-176 82t-117.5 123.5t-75 172l412 45q15 -99 70 -150.5t131 -51.5q85 0 140.5 64.5t55.5 192.5q0 131 -56 192t-149 61
q-59 0 -114 -29q-41 -21 -90 -76l-347 50z" />
    <glyph glyph-name="six.pnum" horiz-adv-x="1360" 
d="M1262 1136l-405 -50q-16 85 -53.5 120t-92.5 35q-99 0 -154 -100q-40 -72 -59 -308q73 74 150 109.5t178 35.5q196 0 331.5 -140t135.5 -355q0 -145 -68.5 -265t-190 -181.5t-304.5 -61.5q-220 0 -353 75t-212.5 239.5t-79.5 435.5q0 397 167 581.5t463 184.5
q175 0 276.5 -40.5t168.5 -118.5t102 -196zM512 483q0 -119 60 -186.5t147 -67.5q80 0 134 61t54 182q0 124 -56 189t-139 65q-85 0 -142.5 -63t-57.5 -180z" />
    <glyph glyph-name="seven.pnum" horiz-adv-x="1297" 
d="M59 1466h1189v-275q-155 -140 -259 -303q-126 -198 -199 -441q-58 -189 -78 -447h-406q48 359 151 602t326 520h-724v344z" />
    <glyph glyph-name="eight.pnum" 
d="M329 788q-96 51 -140 114q-60 86 -60 198q0 184 173 301q135 90 357 90q294 0 434.5 -112t140.5 -282q0 -99 -56 -185q-42 -64 -132 -124q119 -57 177.5 -151t58.5 -208q0 -110 -50.5 -205.5t-124 -147.5t-183 -76.5t-233.5 -24.5q-233 0 -356 55t-187 162t-64 239
q0 129 60 218.5t185 138.5zM512 1076q0 -76 47.5 -122.5t126.5 -46.5q70 0 115 46t45 119q0 76 -47 123.5t-120 47.5q-74 0 -120.5 -46.5t-46.5 -120.5zM490 445q0 -97 59 -158.5t135 -61.5q73 0 131 62.5t58 158.5q0 97 -58.5 159t-135.5 62q-76 0 -132.5 -60t-56.5 -162z
" />
    <glyph glyph-name="nine.pnum" horiz-adv-x="1360" 
d="M100 329l405 51q16 -85 54 -120t93 -35q98 0 153 99q40 73 60 309q-73 -75 -150 -110t-178 -35q-197 0 -332.5 140t-135.5 354q0 146 69 266t190 181.5t304 61.5q220 0 353 -75.5t212.5 -240t79.5 -434.5q0 -397 -167 -581.5t-463 -184.5q-175 0 -276 40.5t-168 118.5
t-103 195zM850 983q0 119 -60 186.5t-146 67.5q-81 0 -134.5 -61t-53.5 -183q0 -123 55.5 -188t138.5 -65q86 0 143 63t57 180z" />
    <glyph glyph-name="glyph694" horiz-adv-x="1599" 
d="M787 1168q-60 0 -100.5 -12t-67.5 -35.5t-42.5 -59t-23.5 -82.5l-418 77q24 123 82.5 206.5t144.5 134.5t196.5 73t237.5 22q177 0 301 -30t202 -93.5t114 -162t36 -234.5v-435q0 -107 2 -189t9.5 -146t21 -113t37.5 -89h-472q-13 31 -23 73t-17 92q-36 -38 -78.5 -73
t-98.5 -61t-127 -41.5t-164 -15.5q-99 0 -182.5 30t-144.5 85.5t-95 135.5t-34 179q0 100 28 179t95.5 138.5t179 101.5t279.5 69q58 9 105.5 17.5t87 17t72.5 16.5t63 17q0 53 -9.5 92.5t-33 65t-63 38t-100.5 12.5zM996 684q-57 -22 -128.5 -41.5t-147.5 -35.5
q-59 -12 -95.5 -28t-56 -36t-26 -44.5t-6.5 -53.5q0 -35 13 -62.5t35.5 -46t53.5 -28.5t67 -10q57 0 109.5 16t93 49t64.5 82.5t24 116.5v122z" />
    <glyph glyph-name="glyph695" horiz-adv-x="1706" 
d="M1577 370q-48 -101 -112 -175t-151 -123t-199.5 -73t-257.5 -24q-153 0 -291.5 46t-243.5 140t-167 236.5t-62 334.5q0 180 55 321t154.5 238.5t239 148.5t308.5 51q183 0 325 -55.5t239 -157.5t147.5 -246t50.5 -321v-108h-1059q11 -144 90.5 -224.5t231.5 -80.5
q99 0 158.5 39t82.5 98zM1153 862q-5 67 -27.5 123.5t-61.5 97t-93 63t-122 22.5q-65 0 -117.5 -23t-90.5 -63.5t-60.5 -97t-27.5 -122.5h600z" />
    <glyph glyph-name="glyph696" horiz-adv-x="1697" 
d="M605 0h-453v1466h423v-208q42 55 91.5 98t110.5 73t136 45.5t168 15.5q111 0 198.5 -36t149 -105t94 -171t32.5 -234v-944h-453v859q0 74 -11.5 128.5t-37.5 90t-67.5 53t-101.5 17.5q-62 0 -113.5 -22t-88.5 -68.5t-57 -118.5t-20 -173v-766z" />
    <glyph glyph-name="glyph697" horiz-adv-x="2469" 
d="M1466 0h-453v859q0 148 -41 218.5t-139 70.5q-51 0 -93 -22t-72 -68.5t-46.5 -118.5t-16.5 -173v-766h-453v1466h423v-208q37 52 85.5 95t108.5 73.5t131 47t152 16.5q58 0 111.5 -13.5t99.5 -42t82 -72t58 -102.5q48 59 100 102.5t111 72t126.5 42t145.5 13.5
q104 0 186 -36t138.5 -105t86.5 -171t30 -234v-944h-453v859q0 148 -40.5 218.5t-138.5 70.5q-51 0 -93 -22t-72 -68.5t-47 -118.5t-17 -173v-766z" />
    <glyph glyph-name="glyph698" horiz-adv-x="1697" 
d="M1092 1466h453v-1466h-423v208q-51 -58 -101.5 -101.5t-109 -72.5t-130.5 -43.5t-165 -14.5q-111 0 -198.5 36t-149 105t-94 171t-32.5 234v944h453v-859q0 -74 11.5 -127t37.5 -86.5t67.5 -49.5t101.5 -16q62 0 113.5 19.5t88 61t57 104.5t20.5 150v803z" />
    <glyph glyph-name="I.ss03" horiz-adv-x="924" 
d="M70 313h165v840h-165v313h784v-313h-165v-840h165v-313h-784v313z" />
    <glyph glyph-name="K.ss03" horiz-adv-x="1666" 
d="M152 1466h453v-644l515 644h542l-617 -689l627 -777h-548l-519 698v-698h-453v1466z" />
    <glyph glyph-name="Q.ss03" horiz-adv-x="1706" 
d="M93 732q0 179 51.5 320t148.5 238.5t237.5 149t319.5 51.5q183 0 324.5 -50.5t239 -146.5t148 -235t50.5 -315q0 -124 -20 -221.5t-54.5 -173t-80 -130.5t-96.5 -95l217 -285h-398l-113 154q-46 -9 -99 -13.5t-125 -4.5q-179 0 -318.5 51.5t-235.5 148.5t-146 237.5
t-50 319.5zM629 591h378l102 -135q50 102 50 294q0 105 -22.5 180t-63 123.5t-98 71.5t-126.5 23q-68 0 -124 -23t-95.5 -73t-61.5 -129.5t-22 -192.5q0 -112 21 -189.5t58.5 -126.5t90 -72.5t115.5 -27.5z" />
    <glyph glyph-name="a.ss03" 
d="M833 534q0 63 -14 109.5t-39 77t-59.5 46t-74.5 15.5q-35 0 -65 -13.5t-53 -44t-36 -79.5t-13 -120q0 -65 13 -112.5t36 -78.5t54.5 -45.5t68.5 -14.5q38 0 71.5 14.5t58 46t38.5 80.5t14 119zM520 1086q53 0 98 -9.5t85.5 -31t78.5 -56t78 -84.5v157h381v-1062h-381v157
q-40 -51 -78 -85.5t-78.5 -56t-85.5 -30.5t-100 -9q-110 0 -193.5 45t-139.5 122.5t-84.5 180t-28.5 218.5q0 133 34 234.5t94 170.5t142 104t178 35z" />
    <glyph glyph-name="j.ss03" horiz-adv-x="682" 
d="M138 1466h407v-277h-407v277zM138 1062h407v-1466h-407v1466z" />
    <glyph glyph-name="k.ss03" 
d="M123 1466h416v-796l319 392h486l-422 -475l444 -587h-479l-348 494v-494h-416v1466z" />
    <glyph glyph-name="l.ss03" horiz-adv-x="780" 
d="M528 1466v-1033q0 -49 3.5 -82t14.5 -52.5t31.5 -27.5t53.5 -8q20 0 41 3t53 9l35 -275q-49 -6 -89 -11t-73.5 -8t-62 -4.5t-53.5 -1.5q-107 0 -177 25t-111 73t-57.5 119t-16.5 164v1110h408z" />
    <glyph glyph-name="q.ss03" horiz-adv-x="1373" 
d="M833 103q-63 -63 -140 -95t-173 -32t-178 35.5t-142 103.5t-94 168.5t-34 231.5q0 139 35 246t96 179t142 109t173 37q54 0 99 -9.5t85.5 -31t79 -56t78.5 -84.5v157h381v-995q0 -55 7 -89.5t20.5 -54t33.5 -26.5t45 -7t72 10l61 -296q-88 -17 -160.5 -26t-132.5 -9
q-72 0 -126.5 13.5t-94.5 37.5t-65.5 58t-39.5 75q-28 81 -28 279v71zM833 528q0 68 -13.5 117t-38 80.5t-58 46.5t-72.5 15q-36 0 -67 -14t-54.5 -45t-37 -81t-13.5 -123q0 -65 13 -111t36 -75.5t53 -43.5t65 -14q41 0 75.5 15t59 46t38.5 77.5t14 109.5z" />
    <glyph glyph-name="t.ss03" horiz-adv-x="744" 
d="M168 0v765h-152v297h152v295h408v-295h152v-297h-152v-765h-408z" />
    <glyph glyph-name="y.ss03" 
d="M836 207q-36 -41 -72.5 -71.5t-78.5 -51t-92 -31t-114 -10.5q-84 0 -150.5 25t-113 75.5t-71 127.5t-24.5 182v609h409v-517q0 -100 37 -142t104 -42q35 0 65.5 12.5t53 42t35 79t12.5 123.5v444h407v-1021q0 -217 -130 -344q-130 -128 -453 -128q-302 0 -420 100
q-119 99 -119 253v54l397 -45q8 -54 49 -80.5t110 -26.5q33 0 62 10.5t50.5 35.5t34 65.5t12.5 99.5v172z" />
    <glyph glyph-name="six.ss03" 
d="M89 561q0 86 26 185t77 204t126 212t173 209l92 95h453l-124 -126q-136 -139 -224.5 -251.5t-142.5 -200.5q58 46 121.5 68t144.5 22q103 0 188.5 -33t147.5 -96t96.5 -155.5t34.5 -210.5q0 -119 -39.5 -213t-113 -159.5t-177.5 -100.5t-233 -35q-166 0 -284.5 38
t-194.5 112t-111.5 183.5t-35.5 252.5zM497 483q0 -59 16 -106t44 -80t65.5 -50.5t81.5 -17.5q39 0 73.5 15t60 45.5t40 76t14.5 106.5q0 62 -15 109.5t-41.5 79t-62 47.5t-76.5 16q-42 0 -78.5 -15.5t-63.5 -46t-42.5 -75.5t-15.5 -104z" />
    <glyph glyph-name="nine.ss03" 
d="M1277 905q0 -86 -26 -185t-77 -204t-126 -212t-173 -209l-92 -95h-453l124 126q136 139 224.5 251t142.5 201q-58 -46 -121.5 -68t-144.5 -22q-103 0 -188.5 33t-147.5 96t-96.5 155t-34.5 211q0 118 39.5 212.5t113 160t177.5 100.5t233 35q173 0 292.5 -41.5
t193.5 -118t107 -185t33 -241.5zM869 983q0 59 -16 106t-44 80t-66 50.5t-81 17.5q-39 0 -73.5 -15t-60 -45.5t-40 -76t-14.5 -106.5q0 -62 15 -109.5t41.5 -79t62 -47.5t76.5 -16q42 0 78.5 15.5t63.5 46t42.5 75.5t15.5 104z" />
    <glyph glyph-name="I.ss01" horiz-adv-x="924" 
d="M70 313h165v840h-165v313h784v-313h-165v-840h165v-313h-784v313z" />
    <glyph glyph-name="l.ss01" horiz-adv-x="780" 
d="M528 1466v-1033q0 -49 3.5 -82t14.5 -52.5t31.5 -27.5t53.5 -8q20 0 41 3t53 9l35 -275q-49 -6 -89 -11t-73.5 -8t-62 -4.5t-53.5 -1.5q-107 0 -177 25t-111 73t-57.5 119t-16.5 164v1110h408z" />
    <glyph glyph-name="i.locl" horiz-adv-x="682" 
d="M138 1466h407v-277h-407v277zM138 1062h407v-1062h-407v1062z" />
    <glyph glyph-name="A.c2sc" horiz-adv-x="1316" 
d="M843 178h-377l-56 -178h-410l440 1136h436l440 -1136h-419zM769 439l-115 373l-115 -373h230z" />
    <glyph glyph-name="B.c2sc" horiz-adv-x="1410" 
d="M148 1136h737q73 0 141.5 -15.5t122 -49.5t85.5 -88t32 -130q0 -51 -16 -91.5t-44 -71.5t-66 -52.5t-81 -33.5q138 -29 202.5 -100.5t64.5 -180.5q0 -81 -33.5 -141.5t-97 -101t-156.5 -60.5t-212 -20h-679v1136zM566 697h149q75 0 108 24.5t33 72.5q0 45 -33 68.5
t-106 23.5h-151v-189zM566 265h194q79 0 113.5 28t34.5 80q0 42 -34 68t-116 26h-192v-202z" />
    <glyph glyph-name="C.c2sc" horiz-adv-x="1327" 
d="M1253 371q-27 -106 -77 -181t-121.5 -122.5t-163 -69.5t-202.5 -22q-138 0 -249 38.5t-189 114t-119.5 186.5t-41.5 256q0 142 40.5 252t117.5 185t189.5 113.5t256.5 38.5q114 0 202 -22.5t154.5 -67t113 -112t78.5 -157.5l-374 -84q-6 30 -20 58t-35.5 49.5t-50 34.5
t-62.5 13q-94 0 -143 -78.5t-49 -220.5q0 -90 12.5 -150t36 -95t57.5 -49.5t77 -14.5q85 0 128.5 54.5t62.5 160.5z" />
    <glyph glyph-name="D.c2sc" horiz-adv-x="1399" 
d="M148 1136h579q157 0 267.5 -42.5t180.5 -117.5t102 -178.5t32 -225.5q0 -151 -39.5 -259t-114.5 -177.5t-183 -102.5t-245 -33h-579v1136zM566 858v-580h111q56 0 96.5 15t66.5 48.5t38.5 88.5t12.5 135q0 86 -17 142.5t-46 90t-68.5 47t-84.5 13.5h-109z" />
    <glyph glyph-name="E.c2sc" horiz-adv-x="1251" 
d="M148 1136h1001v-264h-583v-159h539v-252h-539v-181h601v-280h-1019v1136z" />
    <glyph glyph-name="F.c2sc" horiz-adv-x="1190" 
d="M148 1136h968v-274h-550v-168h462v-262h-462v-432h-418v1136z" />
    <glyph glyph-name="G.c2sc" horiz-adv-x="1473" 
d="M751 399v260h598v-498q-80 -55 -153 -90.5t-145.5 -56.5t-148 -29.5t-162.5 -8.5q-336 0 -493 168q-157 167 -157 423q0 135 43.5 245t128 187t208.5 119t285 42q136 0 234 -25t166 -70.5t110.5 -109t66.5 -141.5l-404 -64q-41 133 -184 133q-54 0 -97.5 -18.5
t-74.5 -56.5t-47.5 -96.5t-16.5 -139.5q0 -89 17.5 -150t50 -99.5t79 -55.5t103.5 -17q55 0 111 11.5t110 42.5v95h-228z" />
    <glyph glyph-name="H.c2sc" horiz-adv-x="1500" 
d="M148 0v1136h418v-386h368v386h418v-1136h-418v437h-368v-437h-418z" />
    <glyph glyph-name="I.c2sc" horiz-adv-x="714" 
d="M148 0v1136h418v-1136h-418z" />
    <glyph glyph-name="J.c2sc" horiz-adv-x="1198" 
d="M632 1136h418v-660q0 -137 -35.5 -232t-101 -154.5t-158.5 -86.5t-209 -27q-130 0 -224.5 25.5t-157 76.5t-96 128t-42.5 179l399 45q0 -49 7 -81t20 -51t32 -26.5t44 -7.5q54 0 79 39.5t25 117.5v715z" />
    <glyph glyph-name="K.c2sc" horiz-adv-x="1492" 
d="M148 1136h418v-419l385 419h507l-421 -430l440 -706h-472l-252 447l-187 -184v-263h-418v1136z" />
    <glyph glyph-name="L.c2sc" horiz-adv-x="1202" 
d="M148 1136h418v-823h586v-313h-1004v1136z" />
    </font>
</defs>
</svg>
