<?xml version="1.0" standalone="no"?>
<!DOCTYPE svg PUBLIC "-//W3C//DTD SVG 1.1//EN" "http://www.w3.org/Graphics/SVG/1.1/DTD/svg11.dtd" >
<svg xmlns="http://www.w3.org/2000/svg" xmlns:xlink="http://www.w3.org/1999/xlink" version="1.1">
<metadata>
Created by FontForge 20190801 at Mon May 13 21:10:13 2024
 By root
(c) 2024 Microsoft Corporation. All Rights Reserved. The "kern" table of this font was developed in part using a study by Andre' Fuchs on the relevance of kerning pairs (https://github.com/andre-fuchs/kerning-pairs/blob/master/LICENSE.md). Copyright 2019 Andre' Fuchs. Permission is hereby granted, free of charge, to any person obtaining a copy of this software and associated documentation files (the "Software"), to deal in the Software without restriction, including without limitation the rights to use, copy, modify, merge, publish, distribute, sublicense, and/or sell copies of the Software, and to permit persons to whom the Software is furnished to do so, subject to the following conditions: The above copyright notice and this permission notice shall be included in all copies or substantial portions of the Software.
</metadata>
<defs>
<font id="Aptos" horiz-adv-x="0" >
  <font-face 
    font-family="Aptos"
    font-weight="400"
    font-stretch="normal"
    units-per-em="2048"
    panose-1="2 11 0 4 2 2 2 2 2 4"
    ascent="1638"
    descent="-410"
    x-height="974"
    cap-height="1346"
    bbox="-1023 -563 2421 2068"
    underline-thickness="50"
    underline-position="-125"
    unicode-range="U+000D-FDFC"
  />
<missing-glyph horiz-adv-x="965" 
d="M0 0v1354h965v-1354h-965zM478 223q-36 0 -60 23.5t-24 59.5t24 59.5t60 23.5t61 -23.5t25 -59.5t-25 -59.5t-61 -23.5zM67 67h830v1218h-830v-1218zM424 507q-4 82 25.5 135.5t88.5 98.5q58 44 85 79.5t27 89.5q0 59 -41 98.5t-127 39.5q-84 0 -131.5 -44t-47.5 -124
h-112q0 125 81 193t210 68q130 0 207.5 -62t77.5 -169q0 -80 -40 -130t-107 -102q-55 -43 -72 -80.5t-21 -90.5h-103z" />
    <glyph glyph-name="f_f.liga" unicode="ff" horiz-adv-x="1234" 
d="M195 0v839h-163v135h163v56q0 74 12.5 133t44 99.5t88 62t146.5 21.5h101v-131h-90q-89 0 -112.5 -48t-23.5 -139v-54h227v-135h-227v-839h-166zM812 0v839h-163v135h163v56q0 74 12.5 133t44 99.5t88 62t146.5 21.5h101v-131h-90q-89 0 -112.5 -48t-23.5 -139v-54h227
v-135h-227v-839h-166z" />
    <glyph glyph-name="uniFB01" unicode="fi" horiz-adv-x="1106" 
d="M195 0v839h-163v135h163v56q0 74 12.5 133t44 99.5t88 62t146.5 21.5h101v-131h-90q-89 0 -112.5 -48t-23.5 -139v-54h227v-135h-227v-839h-166zM778 0v974h167v-974h-167zM861 1157q-47 0 -75.5 27.5t-28.5 69.5t28.5 69.5t75.5 27.5t76 -27.5t29 -69.5t-29 -69.5
t-76 -27.5z" />
    <glyph glyph-name="uniFB02" unicode="fl" horiz-adv-x="1150" 
d="M195 0v839h-163v135h163v56q0 74 12.5 133t44 99.5t88 62t146.5 21.5h101v-131h-90q-89 0 -112.5 -48t-23.5 -139v-54h227v-135h-227v-839h-166zM1058 0q-119 0 -182 37.5t-86 108t-23 169.5v1031h166v-1023q0 -91 23.5 -139t112.5 -48h45v-136h-56z" />
    <glyph glyph-name="uniFDFC" unicode="&#xfdfc;" horiz-adv-x="1786" arabic-form="isolated" 
d="M389 86q-142 0 -212.5 69t-70.5 202q0 39 6.5 82.5t20.5 88.5l138 -2q-12 -40 -18 -83.5t-6 -81.5q0 -73 36 -104t112 -31q122 0 185.5 58t63.5 212v659h146v-661q0 -211 -99.5 -309.5t-301.5 -98.5zM843 -11q-32 0 -54 21.5t-22 53.5t22 53.5t54 21.5q31 0 52.5 -21.5
t21.5 -53.5t-21.5 -53.5t-52.5 -21.5zM1066 -11q-32 0 -53.5 21.5t-21.5 53.5t21.5 53.5t53.5 21.5t54 -21.5t22 -53.5t-22 -53.5t-54 -21.5zM1281 -1v138h30q114 0 172 49t58 137q0 57 -14 119t-38 138h146q22 -77 33.5 -138t11.5 -126q0 -145 -84.5 -231t-282.5 -86h-32z
M1147 221q-122 0 -185 65.5t-63 204.5v664h147v-664q0 -68 26 -99.5t77 -31.5q55 0 86 24t31 73q0 38 -6 81t-21 103h139q13 -59 20 -104t7 -89q0 -105 -65 -166t-193 -61z" />
    <glyph glyph-name=".notdef" horiz-adv-x="965" 
d="M0 0v1354h965v-1354h-965zM478 223q-36 0 -60 23.5t-24 59.5t24 59.5t60 23.5t61 -23.5t25 -59.5t-25 -59.5t-61 -23.5zM67 67h830v1218h-830v-1218zM424 507q-4 82 25.5 135.5t88.5 98.5q58 44 85 79.5t27 89.5q0 59 -41 98.5t-127 39.5q-84 0 -131.5 -44t-47.5 -124
h-112q0 125 81 193t210 68q130 0 207.5 -62t77.5 -169q0 -80 -40 -130t-107 -102q-55 -43 -72 -80.5t-21 -90.5h-103z" />
    <glyph glyph-name="A" unicode="A" horiz-adv-x="1207" 
d="M8 0l504 1346h190l497 -1346h-186l-128 377h-558l-134 -377h-185zM376 528h458l-228 639z" />
    <glyph glyph-name="Aacute" unicode="&#xc1;" horiz-adv-x="1207" 
d="M8 0l504 1346h190l497 -1346h-186l-128 377h-558l-134 -377h-185zM376 528h458l-228 639zM518 1462l194 269h193l-257 -269h-130z" />
    <glyph glyph-name="Abreve" unicode="&#x102;" horiz-adv-x="1207" 
d="M8 0l504 1346h190l497 -1346h-186l-128 377h-558l-134 -377h-185zM376 528h458l-228 639zM600 1481q-80 0 -142 30t-98 85.5t-41 134.5h105q4 -51 30.5 -83.5t65 -48.5t80.5 -16q43 0 81.5 16.5t65.5 49.5t34 82h107q-9 -77 -46.5 -133.5t-99 -86.5t-142.5 -30z" />
    <glyph glyph-name="uni1EAE" unicode="&#x1eae;" horiz-adv-x="1207" 
d="M8 0l504 1346h190l497 -1346h-186l-128 377h-558l-134 -377h-185zM376 528h458l-228 639zM610 1471q-123 0 -195 67.5t-87 185.5h107q7 -52 33 -84t63.5 -46.5t78.5 -14.5q44 0 83 15.5t65.5 47.5t33.5 82h104q-14 -117 -87.5 -185t-198.5 -68zM546 1724l131 266h169
l-201 -266h-99z" />
    <glyph glyph-name="uni1EB6" unicode="&#x1eb6;" horiz-adv-x="1207" 
d="M8 0l504 1346h190l497 -1346h-186l-128 377h-558l-134 -377h-185zM376 528h458l-228 639zM604 -291q-47 0 -76 27.5t-29 69.5t29 69.5t76 27.5t76 -27.5t29 -69.5t-29 -69.5t-76 -27.5zM600 1481q-80 0 -142 30t-98 85.5t-41 134.5h105q4 -51 30.5 -83.5t65 -48.5
t80.5 -16q43 0 81.5 16.5t65.5 49.5t34 82h107q-9 -77 -46.5 -133.5t-99 -86.5t-142.5 -30z" />
    <glyph glyph-name="uni1EB0" unicode="&#x1eb0;" horiz-adv-x="1207" 
d="M8 0l504 1346h190l497 -1346h-186l-128 377h-558l-134 -377h-185zM376 528h458l-228 639zM610 1471q-123 0 -195 67.5t-87 185.5h101q7 -52 33.5 -84t65.5 -46.5t82 -14.5q44 0 84.5 15.5t68 47.5t34.5 82h99q-14 -117 -87.5 -185t-198.5 -68zM670 1724h-99l-201 266h168
z" />
    <glyph glyph-name="uni1EB2" unicode="&#x1eb2;" horiz-adv-x="1207" 
d="M8 0l504 1346h190l497 -1346h-186l-128 377h-558l-134 -377h-185zM376 528h458l-228 639zM610 1471q-123 0 -195 67.5t-87 185.5h101q7 -52 33.5 -84t65.5 -46.5t82 -14.5q44 0 84.5 15.5t68 47.5t34.5 82h99q-14 -117 -87.5 -185t-198.5 -68zM575 1713l-43 61
q35 10 64 34t29 60q0 37 -26 49t-75 12h-13v101h34q104 0 157 -35t53 -106q0 -74 -50.5 -119t-129.5 -57z" />
    <glyph glyph-name="uni1EB4" unicode="&#x1eb4;" horiz-adv-x="1207" 
d="M8 0l504 1346h190l497 -1346h-186l-128 377h-558l-134 -377h-185zM376 528h458l-228 639zM610 1471q-123 0 -195 66t-87 182h101q7 -50 33.5 -81t65.5 -45t82 -14q44 0 84.5 15t68 45.5t34.5 79.5h99q-14 -115 -87.5 -181.5t-198.5 -66.5zM308 1798q11 88 54 141.5
t127 53.5q41 0 80 -14t76 -31q34 -14 60 -23t48 -9q33 0 54 19.5t26 62.5h98q-10 -87 -50.5 -138.5t-123.5 -51.5q-44 0 -83 14t-74 28q-35 16 -61 25t-48 9q-35 0 -57 -20.5t-28 -65.5h-98z" />
    <glyph glyph-name="Acircumflex" unicode="&#xc2;" horiz-adv-x="1207" 
d="M8 0l504 1346h190l497 -1346h-186l-128 377h-558l-134 -377h-185zM376 528h458l-228 639zM305 1462l214 271h167l214 -271h-139l-158 173l-160 -173h-138z" />
    <glyph glyph-name="uni1EA4" unicode="&#x1ea4;" horiz-adv-x="1207" 
d="M8 0l504 1346h190l497 -1346h-186l-128 377h-558l-134 -377h-185zM376 528h458l-228 639zM299 1462l214 271h167l214 -271h-138l-158 173l-160 -173h-139zM790 1630l163 269h183l-226 -269h-120z" />
    <glyph glyph-name="uni1EAC" unicode="&#x1eac;" horiz-adv-x="1207" 
d="M8 0l504 1346h190l497 -1346h-186l-128 377h-558l-134 -377h-185zM376 528h458l-228 639zM604 -291q-47 0 -76 27.5t-29 69.5t29 69.5t76 27.5t76 -27.5t29 -69.5t-29 -69.5t-76 -27.5zM305 1462l214 271h167l214 -271h-139l-158 173l-160 -173h-138z" />
    <glyph glyph-name="uni1EA6" unicode="&#x1ea6;" horiz-adv-x="1207" 
d="M8 0l504 1346h190l497 -1346h-186l-128 377h-558l-134 -377h-185zM376 528h458l-228 639zM299 1462l214 271h167l214 -271h-138l-158 173l-160 -173h-139zM400 1630h-119l-227 269h185z" />
    <glyph glyph-name="uni1EA8" unicode="&#x1ea8;" horiz-adv-x="1207" 
d="M8 0l504 1346h190l497 -1346h-186l-128 377h-558l-134 -377h-185zM376 528h458l-228 639zM299 1462l214 271h167l214 -271h-138l-158 173l-160 -173h-139zM836 1626l-42 62q35 10 63.5 34t28.5 60q0 37 -26 49t-74 12h-13v101h33q104 0 157 -35t53 -106q0 -74 -50 -119
t-130 -58z" />
    <glyph glyph-name="uni1EAA" unicode="&#x1eaa;" horiz-adv-x="1207" 
d="M8 0l504 1346h190l497 -1346h-186l-128 377h-558l-134 -377h-185zM376 528h458l-228 639zM299 1462l214 268h167l214 -268h-138l-158 170l-160 -170h-139zM288 1795q11 89 53.5 142.5t127.5 53.5q37 0 75.5 -13.5t79.5 -31.5q35 -15 61 -23.5t48 -8.5q33 0 53.5 20
t26.5 61h98q-11 -86 -51.5 -137.5t-123.5 -51.5q-43 0 -83 13.5t-73 28.5q-37 16 -62 25t-47 9q-35 0 -57 -20.5t-28 -66.5h-98z" />
    <glyph glyph-name="Adieresis" unicode="&#xc4;" horiz-adv-x="1207" 
d="M8 0l504 1346h190l497 -1346h-186l-128 377h-558l-134 -377h-185zM376 528h458l-228 639zM779 1510q-40 0 -66.5 25t-26.5 65t26.5 65.5t66.5 25.5t67 -25.5t27 -65.5t-27 -65t-67 -25zM427 1510q-39 0 -66.5 25t-27.5 65t27.5 65.5t66.5 25.5q40 0 67 -25.5t27 -65.5
t-27 -65t-67 -25z" />
    <glyph glyph-name="uni1EA0" unicode="&#x1ea0;" horiz-adv-x="1207" 
d="M8 0l504 1346h190l497 -1346h-186l-128 377h-558l-134 -377h-185zM376 528h458l-228 639zM604 -291q-47 0 -76 27.5t-29 69.5t29 69.5t76 27.5t76 -27.5t29 -69.5t-29 -69.5t-76 -27.5z" />
    <glyph glyph-name="Agrave" unicode="&#xc0;" horiz-adv-x="1207" 
d="M8 0l504 1346h190l497 -1346h-186l-128 377h-558l-134 -377h-185zM376 528h458l-228 639zM558 1462l-257 269h193l194 -269h-130z" />
    <glyph glyph-name="uni1EA2" unicode="&#x1ea2;" horiz-adv-x="1207" 
d="M8 0l504 1346h190l497 -1346h-186l-128 377h-558l-134 -377h-185zM376 528h458l-228 639zM566 1505l-43 78q35 10 63.5 28.5t28.5 48.5q0 38 -25.5 50t-75.5 12h-13v102h34q118 0 177 -36t59 -111q0 -71 -57.5 -115t-147.5 -57zM523 1583l112 -12v-110h-112v122z" />
    <glyph glyph-name="Amacron" unicode="&#x100;" horiz-adv-x="1207" 
d="M8 0l504 1346h190l497 -1346h-186l-128 377h-558l-134 -377h-185zM376 528h458l-228 639zM331 1524v123h545v-123h-545z" />
    <glyph glyph-name="Aogonek" unicode="&#x104;" horiz-adv-x="1207" 
d="M8 0l504 1346h190l497 -1346h-186l-128 377h-558l-134 -377h-185zM376 528h458l-228 639zM1043 -375q-76 0 -129.5 43t-53.5 119q0 51 31.5 101t85 89.5t118.5 56.5l63 -18q-88 -57 -122 -109.5t-34 -94.5q0 -35 20.5 -53.5t51.5 -18.5q34 0 63.5 8.5t61.5 22.5v-111
q-29 -16 -63.5 -25.5t-92.5 -9.5z" />
    <glyph glyph-name="Aring" unicode="&#xc5;" horiz-adv-x="1207" 
d="M8 0l504 1346h190l497 -1346h-186l-128 377h-558l-134 -377h-185zM376 528h458l-228 639zM603 1377q-92 0 -150 56t-58 147q0 90 58 145.5t150 55.5t150 -55.5t58 -145.5q0 -91 -58 -147t-150 -56zM603 1472q47 0 76 30.5t29 78.5q0 46 -29 76.5t-76 30.5
q-46 0 -75 -30.5t-29 -76.5q0 -48 29 -78.5t75 -30.5z" />
    <glyph glyph-name="Aringacute" unicode="&#x1fa;" horiz-adv-x="1207" 
d="M8 0l504 1346h190l497 -1346h-186l-128 377h-558l-134 -377h-185zM376 528h458l-228 639zM603 1252q-92 0 -150 56t-58 147q0 90 58 145.5t150 55.5t150 -55.5t58 -145.5q0 -91 -58 -147t-150 -56zM603 1347q47 0 76 30.5t29 78.5q0 46 -29 76.5t-76 30.5
q-46 0 -75 -30.5t-29 -76.5q0 -48 29 -78.5t75 -30.5zM496 1691l194 269h193l-257 -269h-130z" />
    <glyph glyph-name="Atilde" unicode="&#xc3;" horiz-adv-x="1207" 
d="M8 0l504 1346h190l497 -1346h-186l-128 377h-558l-134 -377h-185zM376 528h458l-228 639zM312 1484q10 92 47.5 146t112.5 54q41 0 80.5 -14t76.5 -31q33 -14 59.5 -23t48.5 -9q24 0 40 20t20 62h98q-10 -89 -45.5 -141.5t-109.5 -52.5q-44 0 -83 13.5t-74 28.5
q-34 15 -60 24.5t-49 9.5q-27 0 -43 -21t-21 -66h-98z" />
    <glyph glyph-name="AE" unicode="&#xc6;" horiz-adv-x="1911" 
d="M-33 0l870 1346h146l3 -175h-81l-447 -706v-11l-285 -454h-206zM379 377v151h659v-151h-659zM947 0v1346h859v-150h-679v-429h626v-148h-626v-469h679v-150h-859z" />
    <glyph glyph-name="AEacute" unicode="&#x1fc;" horiz-adv-x="1911" 
d="M-33 0l870 1346h146l3 -175h-81l-447 -706v-11l-285 -454h-206zM379 377v151h659v-151h-659zM947 0v1346h859v-150h-679v-429h626v-148h-626v-469h679v-150h-859zM1048 1462l194 269h193l-257 -269h-130z" />
    <glyph glyph-name="B" unicode="B" horiz-adv-x="1237" 
d="M176 0v1346h432q203 0 324.5 -82t121.5 -250q0 -106 -59.5 -189t-157.5 -108q140 -23 223 -111.5t83 -218.5q0 -122 -54 -208.5t-163 -132.5t-275 -46h-475zM356 150h292q85 0 157 21.5t115 76t43 150.5q0 116 -84 173t-231 57h-292v-478zM356 774h251q130 0 198.5 59.5
t68.5 160.5q0 68 -31 113.5t-90.5 68t-145.5 22.5h-251v-424z" />
    <glyph glyph-name="uni0181" unicode="&#x181;" horiz-adv-x="1420" 
d="M360 0v1198q-89 -2 -136.5 -40t-47.5 -120v-70h-158v80q0 158 95.5 228t246.5 70h432q202 0 323.5 -82t121.5 -250q0 -106 -59.5 -189t-158.5 -108q140 -23 223.5 -111.5t83.5 -218.5q0 -122 -54.5 -208.5t-163.5 -132.5t-274 -46h-474zM539 150h291q87 0 158.5 21.5
t114.5 76t43 150.5q0 116 -84 173t-232 57h-291v-478zM539 774h251q129 0 198 59.5t69 160.5q0 68 -31 113.5t-90.5 68t-145.5 22.5h-251v-424z" />
    <glyph glyph-name="C" unicode="C" horiz-adv-x="1418" 
d="M750 -18q-209 0 -352 88t-216.5 243t-73.5 359t73.5 360t216.5 244t352 88q138 0 260.5 -48t204 -146.5t95.5 -248.5h-181q-12 101 -67.5 166.5t-137 97.5t-174.5 32q-162 0 -262.5 -74t-146.5 -197t-46 -274q0 -150 46 -273t146.5 -195.5t262.5 -72.5q164 0 266 81
t118 242h182q-16 -159 -93 -263.5t-199 -156.5t-274 -52z" />
    <glyph glyph-name="Cacute" unicode="&#x106;" horiz-adv-x="1418" 
d="M750 -18q-209 0 -352 88t-216.5 243t-73.5 359t73.5 360t216.5 244t352 88q138 0 260.5 -48t204 -146.5t95.5 -248.5h-181q-12 101 -67.5 166.5t-137 97.5t-174.5 32q-162 0 -262.5 -74t-146.5 -197t-46 -274q0 -150 46 -273t146.5 -195.5t262.5 -72.5q164 0 266 81
t118 242h182q-16 -159 -93 -263.5t-199 -156.5t-274 -52zM661 1462l194 269h193l-257 -269h-130z" />
    <glyph glyph-name="Ccaron" unicode="&#x10c;" horiz-adv-x="1418" 
d="M750 -18q-209 0 -352 88t-216.5 243t-73.5 359t73.5 360t216.5 244t352 88q138 0 260.5 -48t204 -146.5t95.5 -248.5h-181q-12 101 -67.5 166.5t-137 97.5t-174.5 32q-162 0 -262.5 -74t-146.5 -197t-46 -274q0 -150 46 -273t146.5 -195.5t262.5 -72.5q164 0 266 81
t118 242h182q-16 -159 -93 -263.5t-199 -156.5t-274 -52zM662 1462l-214 271h138l158 -173l160 173h139l-214 -271h-167z" />
    <glyph glyph-name="Ccedilla" unicode="&#xc7;" horiz-adv-x="1418" 
d="M750 -18q-209 0 -352 88t-216.5 243t-73.5 359t73.5 360t216.5 244t352 88q138 0 260.5 -48t204 -146.5t95.5 -248.5h-181q-12 101 -67.5 166.5t-137 97.5t-174.5 32q-162 0 -262.5 -74t-146.5 -197t-46 -274q0 -150 46 -273t146.5 -195.5t262.5 -72.5q164 0 266 81
t118 242h182q-16 -159 -93 -263.5t-199 -156.5t-274 -52zM723 -382q-57 0 -100 9.5t-81 24.5l27 93q26 -12 66.5 -20.5t81.5 -8.5q36 0 61 17t25 48q0 35 -32 52.5t-111 26.5l-44 5l132 177l81 -37l-68 -93l-30 23q94 -4 145.5 -42t51.5 -109q0 -55 -27 -92t-73 -55.5
t-105 -18.5z" />
    <glyph glyph-name="Ccircumflex" unicode="&#x108;" horiz-adv-x="1418" 
d="M750 -18q-209 0 -352 88t-216.5 243t-73.5 359t73.5 360t216.5 244t352 88q138 0 260.5 -48t204 -146.5t95.5 -248.5h-181q-12 101 -67.5 166.5t-137 97.5t-174.5 32q-162 0 -262.5 -74t-146.5 -197t-46 -274q0 -150 46 -273t146.5 -195.5t262.5 -72.5q164 0 266 81
t118 242h182q-16 -159 -93 -263.5t-199 -156.5t-274 -52zM448 1462l214 271h167l214 -271h-139l-158 173l-160 -173h-138z" />
    <glyph glyph-name="Cdotaccent" unicode="&#x10a;" horiz-adv-x="1418" 
d="M750 -18q-209 0 -352 88t-216.5 243t-73.5 359t73.5 360t216.5 244t352 88q138 0 260.5 -48t204 -146.5t95.5 -248.5h-181q-12 101 -67.5 166.5t-137 97.5t-174.5 32q-162 0 -262.5 -74t-146.5 -197t-46 -274q0 -150 46 -273t146.5 -195.5t262.5 -72.5q164 0 266 81
t118 242h182q-16 -159 -93 -263.5t-199 -156.5t-274 -52zM746 1503q-47 0 -76 27.5t-29 69.5t29 69.5t76 27.5t76 -27.5t29 -69.5t-29 -69.5t-76 -27.5z" />
    <glyph glyph-name="D" unicode="D" horiz-adv-x="1405" 
d="M176 0v1346h453q211 0 360 -79.5t227 -230.5t78 -363q0 -213 -78.5 -364t-227.5 -230t-359 -79h-453zM356 151h233q177 0 292 56.5t171.5 173t56.5 293.5q0 176 -57.5 291.5t-173 172.5t-289.5 57h-233v-1044z" />
    <glyph glyph-name="uni0189" unicode="&#x189;" horiz-adv-x="1405" 
d="M0 613v144h714v-144h-714zM176 0v1346h453q211 0 360 -79.5t227 -230.5t78 -363q0 -213 -78.5 -364t-227.5 -230t-359 -79h-453zM356 151h233q177 0 292 56.5t171.5 173t56.5 293.5q0 176 -57.5 291.5t-173 172.5t-289.5 57h-233v-1044z" />
    <glyph glyph-name="Eth" unicode="&#xd0;" horiz-adv-x="1405" 
d="M0 613v144h714v-144h-714zM176 0v1346h453q211 0 360 -79.5t227 -230.5t78 -363q0 -213 -78.5 -364t-227.5 -230t-359 -79h-453zM356 151h233q177 0 292 56.5t171.5 173t56.5 293.5q0 176 -57.5 291.5t-173 172.5t-289.5 57h-233v-1044z" />
    <glyph glyph-name="Dcaron" unicode="&#x10e;" horiz-adv-x="1405" 
d="M176 0v1346h453q211 0 360 -79.5t227 -230.5t78 -363q0 -213 -78.5 -364t-227.5 -230t-359 -79h-453zM356 151h233q177 0 292 56.5t171.5 173t56.5 293.5q0 176 -57.5 291.5t-173 172.5t-289.5 57h-233v-1044zM619 1462l-214 271h138l158 -173l160 173h139l-214 -271
h-167z" />
    <glyph glyph-name="Dcroat" unicode="&#x110;" horiz-adv-x="1405" 
d="M0 613v144h714v-144h-714zM176 0v1346h453q211 0 360 -79.5t227 -230.5t78 -363q0 -213 -78.5 -364t-227.5 -230t-359 -79h-453zM356 151h233q177 0 292 56.5t171.5 173t56.5 293.5q0 176 -57.5 291.5t-173 172.5t-289.5 57h-233v-1044z" />
    <glyph glyph-name="uni018A" unicode="&#x18a;" horiz-adv-x="1587" 
d="M360 0v1198q-89 -2 -136.5 -40t-47.5 -120v-70h-158v80q0 158 95.5 228t246.5 70h452q211 0 360 -79.5t227 -230.5t78 -363q0 -213 -78.5 -364t-227 -230t-359.5 -79h-452zM539 151h233q265 0 392.5 128.5t127.5 394.5q0 264 -129.5 392.5t-390.5 128.5h-233v-1044z" />
    <glyph glyph-name="E" unicode="E" horiz-adv-x="1139" 
d="M176 0v1346h859v-150h-679v-429h625v-148h-625v-469h679v-150h-859z" />
    <glyph glyph-name="Eacute" unicode="&#xc9;" horiz-adv-x="1139" 
d="M176 0v1346h859v-150h-679v-429h625v-148h-625v-469h679v-150h-859zM520 1462l194 269h193l-257 -269h-130z" />
    <glyph glyph-name="Ebreve" unicode="&#x114;" horiz-adv-x="1139" 
d="M176 0v1346h859v-150h-679v-429h625v-148h-625v-469h679v-150h-859zM602 1481q-80 0 -142 30t-98 85.5t-41 134.5h105q4 -51 30.5 -83.5t65 -48.5t80.5 -16q43 0 81.5 16.5t65.5 49.5t34 82h107q-9 -77 -46.5 -133.5t-99 -86.5t-142.5 -30z" />
    <glyph glyph-name="Ecaron" unicode="&#x11a;" horiz-adv-x="1139" 
d="M176 0v1346h859v-150h-679v-429h625v-148h-625v-469h679v-150h-859zM521 1462l-214 271h138l158 -173l160 173h139l-214 -271h-167z" />
    <glyph glyph-name="Ecircumflex" unicode="&#xca;" horiz-adv-x="1139" 
d="M176 0v1346h859v-150h-679v-429h625v-148h-625v-469h679v-150h-859zM307 1462l214 271h167l214 -271h-139l-158 173l-160 -173h-138z" />
    <glyph glyph-name="uni1EBE" unicode="&#x1ebe;" horiz-adv-x="1139" 
d="M176 0v1346h859v-150h-679v-429h625v-148h-625v-469h679v-150h-859zM301 1462l214 271h167l214 -271h-138l-158 173l-160 -173h-139zM792 1630l163 269h183l-226 -269h-120z" />
    <glyph glyph-name="uni1EC6" unicode="&#x1ec6;" horiz-adv-x="1139" 
d="M176 0v1346h859v-150h-679v-429h625v-148h-625v-469h679v-150h-859zM618 -291q-47 0 -76 27.5t-29 69.5t29 69.5t76 27.5t76 -27.5t29 -69.5t-29 -69.5t-76 -27.5zM307 1462l214 271h167l214 -271h-139l-158 173l-160 -173h-138z" />
    <glyph glyph-name="uni1EC0" unicode="&#x1ec0;" horiz-adv-x="1139" 
d="M176 0v1346h859v-150h-679v-429h625v-148h-625v-469h679v-150h-859zM301 1462l214 271h167l214 -271h-138l-158 173l-160 -173h-139zM402 1630h-119l-227 269h185z" />
    <glyph glyph-name="uni1EC2" unicode="&#x1ec2;" horiz-adv-x="1139" 
d="M176 0v1346h859v-150h-679v-429h625v-148h-625v-469h679v-150h-859zM301 1462l214 271h167l214 -271h-138l-158 173l-160 -173h-139zM838 1626l-42 62q35 10 63.5 34t28.5 60q0 37 -26 49t-74 12h-13v101h33q104 0 157 -35t53 -106q0 -74 -50 -119t-130 -58z" />
    <glyph glyph-name="uni1EC4" unicode="&#x1ec4;" horiz-adv-x="1139" 
d="M176 0v1346h859v-150h-679v-429h625v-148h-625v-469h679v-150h-859zM301 1462l214 268h167l214 -268h-138l-158 170l-160 -170h-139zM290 1795q11 89 53.5 142.5t127.5 53.5q37 0 75.5 -13.5t79.5 -31.5q35 -15 61 -23.5t48 -8.5q33 0 53.5 20t26.5 61h98
q-11 -86 -51.5 -137.5t-123.5 -51.5q-43 0 -83 13.5t-73 28.5q-37 16 -62 25t-47 9q-35 0 -57 -20.5t-28 -66.5h-98z" />
    <glyph glyph-name="Edieresis" unicode="&#xcb;" horiz-adv-x="1139" 
d="M176 0v1346h859v-150h-679v-429h625v-148h-625v-469h679v-150h-859zM781 1510q-40 0 -66.5 25t-26.5 65t26.5 65.5t66.5 25.5t67 -25.5t27 -65.5t-27 -65t-67 -25zM429 1510q-39 0 -66.5 25t-27.5 65t27.5 65.5t66.5 25.5q40 0 67 -25.5t27 -65.5t-27 -65t-67 -25z" />
    <glyph glyph-name="Edotaccent" unicode="&#x116;" horiz-adv-x="1139" 
d="M176 0v1346h859v-150h-679v-429h625v-148h-625v-469h679v-150h-859zM605 1503q-47 0 -76 27.5t-29 69.5t29 69.5t76 27.5t76 -27.5t29 -69.5t-29 -69.5t-76 -27.5z" />
    <glyph glyph-name="uni1EB8" unicode="&#x1eb8;" horiz-adv-x="1139" 
d="M176 0v1346h859v-150h-679v-429h625v-148h-625v-469h679v-150h-859zM618 -291q-47 0 -76 27.5t-29 69.5t29 69.5t76 27.5t76 -27.5t29 -69.5t-29 -69.5t-76 -27.5z" />
    <glyph glyph-name="Egrave" unicode="&#xc8;" horiz-adv-x="1139" 
d="M176 0v1346h859v-150h-679v-429h625v-148h-625v-469h679v-150h-859zM560 1462l-257 269h193l194 -269h-130z" />
    <glyph glyph-name="uni1EBA" unicode="&#x1eba;" horiz-adv-x="1139" 
d="M176 0v1346h859v-150h-679v-429h625v-148h-625v-469h679v-150h-859zM568 1505l-43 78q35 10 63.5 28.5t28.5 48.5q0 38 -25.5 50t-75.5 12h-13v102h34q118 0 177 -36t59 -111q0 -71 -57.5 -115t-147.5 -57zM525 1583l112 -12v-110h-112v122z" />
    <glyph glyph-name="Emacron" unicode="&#x112;" horiz-adv-x="1139" 
d="M176 0v1346h859v-150h-679v-429h625v-148h-625v-469h679v-150h-859zM333 1524v123h545v-123h-545z" />
    <glyph glyph-name="Eogonek" unicode="&#x118;" horiz-adv-x="1139" 
d="M176 0v1346h859v-150h-679v-429h625v-148h-625v-469h679v-150h-859zM826 -375q-76 0 -129.5 43t-53.5 119q0 51 31.5 101t85 89.5t118.5 56.5l63 -18q-88 -57 -122 -109.5t-34 -94.5q0 -35 20.5 -53.5t51.5 -18.5q34 0 63.5 8.5t61.5 22.5v-111q-29 -16 -63.5 -25.5
t-92.5 -9.5z" />
    <glyph glyph-name="uni0190" unicode="&#x190;" horiz-adv-x="1169" 
d="M589 -18q-147 0 -258.5 46.5t-174 136t-62.5 218.5q0 139 89 224.5t222 110.5q-122 30 -197.5 108t-75.5 197q0 113 61 189t164 115t227 39q140 0 244 -48t162.5 -135t58.5 -205h-178q4 109 -73 176.5t-215 67.5q-122 0 -198 -52.5t-76 -156.5q0 -106 74.5 -169
t213.5 -63h120v-144h-116q-150 0 -236 -60.5t-86 -187.5q0 -135 83 -199t229 -64q150 0 234 75.5t84 202.5h178q0 -137 -62 -231t-174 -142.5t-262 -48.5z" />
    <glyph glyph-name="uni018E" unicode="&#x18e;" horiz-adv-x="1140" 
d="M105 0v150h678v469h-624v148h624v429h-678v150h858v-1346h-858z" />
    <glyph glyph-name="uni1EBC" unicode="&#x1ebc;" horiz-adv-x="1139" 
d="M176 0v1346h859v-150h-679v-429h625v-148h-625v-469h679v-150h-859zM314 1484q10 92 47.5 146t112.5 54q41 0 80.5 -14t76.5 -31q33 -14 59.5 -23t48.5 -9q24 0 40 20t20 62h98q-10 -89 -45.5 -141.5t-109.5 -52.5q-44 0 -83 13.5t-74 28.5q-34 15 -60 24.5t-49 9.5
q-27 0 -43 -21t-21 -66h-98z" />
    <glyph glyph-name="uni018F" unicode="&#x18f;" horiz-adv-x="1454" 
d="M727 -18q-126 0 -236 36t-193.5 117.5t-133 217t-56.5 335.5l197 -124q9 -161 69.5 -256.5t153.5 -137t199 -41.5q153 0 247.5 71.5t138.5 194.5t44 279q0 155 -44 277t-138.5 192.5t-247.5 70.5q-187 0 -299.5 -76t-132.5 -232h-182q20 155 104.5 256.5t217 151.5
t296.5 50q200 0 336 -87.5t206 -242.5t70 -360q0 -204 -70.5 -360t-207.5 -244t-338 -88zM190 543l-82 145h1129v-145h-1047z" />
    <glyph glyph-name="uni01B7" unicode="&#x1b7;" horiz-adv-x="1153" 
d="M574 -18q-149 0 -259.5 48.5t-171.5 142.5t-61 231h178q0 -127 82 -202.5t230 -75.5q141 0 221.5 68.5t80.5 214.5q0 138 -101 203.5t-277 65.5h-126v135l164 -3q152 0 270.5 -44.5t186.5 -133.5t68 -225t-61 -231t-170 -144.5t-254 -49.5zM503 754l-133 59l406 382h-615
v151h826v-142z" />
    <glyph glyph-name="F" unicode="F" horiz-adv-x="1074" 
d="M176 0v1346h838v-150h-658v-430h596v-147h-596v-619h-180z" />
    <glyph glyph-name="uni0191" unicode="&#x191;" horiz-adv-x="1074" 
d="M2 -358v153h52q71 0 96.5 44t25.5 128v1379h838v-150h-658v-430h596v-147h-596v-656q0 -164 -67 -242.5t-221 -78.5h-66z" />
    <glyph glyph-name="G" unicode="G" horiz-adv-x="1451" 
d="M752 -18q-210 0 -353.5 87t-217 242.5t-73.5 360.5q0 206 73.5 362t217 243t353.5 87q104 0 199 -26.5t172 -80t126.5 -134.5t60.5 -191h-180q-10 77 -57.5 141.5t-129 104t-193.5 39.5q-162 0 -264 -73.5t-149 -196.5t-47 -275q0 -151 47.5 -273.5t149.5 -194.5t265 -72
q141 0 231.5 50.5t135 141t46.5 208.5h-393v149h569v-105q0 -175 -65.5 -309t-196 -209.5t-327.5 -75.5z" />
    <glyph glyph-name="Gbreve" unicode="&#x11e;" horiz-adv-x="1451" 
d="M752 -18q-210 0 -353.5 87t-217 242.5t-73.5 360.5q0 206 73.5 362t217 243t353.5 87q104 0 199 -26.5t172 -80t126.5 -134.5t60.5 -191h-180q-10 77 -57.5 141.5t-129 104t-193.5 39.5q-162 0 -264 -73.5t-149 -196.5t-47 -275q0 -151 47.5 -273.5t149.5 -194.5t265 -72
q141 0 231.5 50.5t135 141t46.5 208.5h-393v149h569v-105q0 -175 -65.5 -309t-196 -209.5t-327.5 -75.5zM747 1481q-80 0 -142 30t-98 85.5t-41 134.5h105q4 -51 30.5 -83.5t65 -48.5t80.5 -16q43 0 81.5 16.5t65.5 49.5t34 82h107q-9 -77 -46.5 -133.5t-99 -86.5
t-142.5 -30z" />
    <glyph glyph-name="Gcaron" unicode="&#x1e6;" horiz-adv-x="1451" 
d="M752 -18q-210 0 -353.5 87t-217 242.5t-73.5 360.5q0 206 73.5 362t217 243t353.5 87q104 0 199 -26.5t172 -80t126.5 -134.5t60.5 -191h-180q-10 77 -57.5 141.5t-129 104t-193.5 39.5q-162 0 -264 -73.5t-149 -196.5t-47 -275q0 -151 47.5 -273.5t149.5 -194.5t265 -72
q141 0 231.5 50.5t135 141t46.5 208.5h-393v149h569v-105q0 -175 -65.5 -309t-196 -209.5t-327.5 -75.5zM666 1462l-214 271h138l158 -173l160 173h139l-214 -271h-167z" />
    <glyph glyph-name="Gcircumflex" unicode="&#x11c;" horiz-adv-x="1451" 
d="M752 -18q-210 0 -353.5 87t-217 242.5t-73.5 360.5q0 206 73.5 362t217 243t353.5 87q104 0 199 -26.5t172 -80t126.5 -134.5t60.5 -191h-180q-10 77 -57.5 141.5t-129 104t-193.5 39.5q-162 0 -264 -73.5t-149 -196.5t-47 -275q0 -151 47.5 -273.5t149.5 -194.5t265 -72
q141 0 231.5 50.5t135 141t46.5 208.5h-393v149h569v-105q0 -175 -65.5 -309t-196 -209.5t-327.5 -75.5zM452 1462l214 271h167l214 -271h-139l-158 173l-160 -173h-138z" />
    <glyph glyph-name="uni0122" unicode="&#x122;" horiz-adv-x="1451" 
d="M752 -18q-210 0 -353.5 87t-217 242.5t-73.5 360.5q0 206 73.5 362t217 243t353.5 87q104 0 199 -26.5t172 -80t126.5 -134.5t60.5 -191h-180q-10 77 -57.5 141.5t-129 104t-193.5 39.5q-162 0 -264 -73.5t-149 -196.5t-47 -275q0 -151 47.5 -273.5t149.5 -194.5t265 -72
q141 0 231.5 50.5t135 141t46.5 208.5h-393v149h569v-105q0 -175 -65.5 -309t-196 -209.5t-327.5 -75.5zM662 -382l-20 65q33 13 62.5 34t38.5 52q-38 4 -62 28.5t-24 58.5q0 36 26.5 60.5t72.5 24.5q44 0 74.5 -27.5t30.5 -80.5q0 -81 -59 -139t-140 -76z" />
    <glyph glyph-name="Gdotaccent" unicode="&#x120;" horiz-adv-x="1451" 
d="M752 -18q-210 0 -353.5 87t-217 242.5t-73.5 360.5q0 206 73.5 362t217 243t353.5 87q104 0 199 -26.5t172 -80t126.5 -134.5t60.5 -191h-180q-10 77 -57.5 141.5t-129 104t-193.5 39.5q-162 0 -264 -73.5t-149 -196.5t-47 -275q0 -151 47.5 -273.5t149.5 -194.5t265 -72
q141 0 231.5 50.5t135 141t46.5 208.5h-393v149h569v-105q0 -175 -65.5 -309t-196 -209.5t-327.5 -75.5zM750 1503q-47 0 -76 27.5t-29 69.5t29 69.5t76 27.5t76 -27.5t29 -69.5t-29 -69.5t-76 -27.5z" />
    <glyph glyph-name="H" unicode="H" horiz-adv-x="1448" 
d="M176 0v1346h180v-565h736v565h178v-1346h-178v625h-736v-625h-180z" />
    <glyph glyph-name="Hbar" unicode="&#x126;" horiz-adv-x="1448" 
d="M18 998v115h1410v-115h-1410zM176 0v1346h180v-565h736v565h178v-1346h-178v625h-736v-625h-180z" />
    <glyph glyph-name="Hcircumflex" unicode="&#x124;" horiz-adv-x="1448" 
d="M176 0v1346h180v-565h736v565h178v-1346h-178v625h-736v-625h-180zM427 1462l214 271h167l214 -271h-139l-158 173l-160 -173h-138z" />
    <glyph glyph-name="I" unicode="I" horiz-adv-x="533" 
d="M176 0v1346h180v-1346h-180z" />
    <glyph glyph-name="IJ" unicode="&#x132;" horiz-adv-x="1212" 
d="M176 0v1346h180v-1346h-180zM570 -10v153h71q134 0 184 61.5t50 199.5v942h177v-945q0 -143 -40 -234t-127.5 -134t-229.5 -43h-85z" />
    <glyph glyph-name="Iacute" unicode="&#xcd;" horiz-adv-x="533" 
d="M176 0v1346h180v-1346h-180zM181 1462l194 269h193l-257 -269h-130z" />
    <glyph glyph-name="Ibreve" unicode="&#x12c;" horiz-adv-x="533" 
d="M176 0v1346h180v-1346h-180zM263 1481q-80 0 -142 30t-98 85.5t-41 134.5h105q4 -51 30.5 -83.5t65 -48.5t80.5 -16q43 0 81.5 16.5t65.5 49.5t34 82h107q-9 -77 -46.5 -133.5t-99 -86.5t-142.5 -30z" />
    <glyph glyph-name="Icircumflex" unicode="&#xce;" horiz-adv-x="533" 
d="M176 0v1346h180v-1346h-180zM-32 1462l214 271h167l214 -271h-139l-158 173l-160 -173h-138z" />
    <glyph glyph-name="Idieresis" unicode="&#xcf;" horiz-adv-x="533" 
d="M176 0v1346h180v-1346h-180zM442 1510q-40 0 -66.5 25t-26.5 65t26.5 65.5t66.5 25.5t67 -25.5t27 -65.5t-27 -65t-67 -25zM90 1510q-39 0 -66.5 25t-27.5 65t27.5 65.5t66.5 25.5q40 0 67 -25.5t27 -65.5t-27 -65t-67 -25z" />
    <glyph glyph-name="Idotaccent" unicode="&#x130;" horiz-adv-x="533" 
d="M176 0v1346h180v-1346h-180zM266 1503q-47 0 -76 27.5t-29 69.5t29 69.5t76 27.5t76 -27.5t29 -69.5t-29 -69.5t-76 -27.5z" />
    <glyph glyph-name="uni1ECA" unicode="&#x1eca;" horiz-adv-x="533" 
d="M176 0v1346h180v-1346h-180zM266 -291q-47 0 -76 27.5t-29 69.5t29 69.5t76 27.5t76 -27.5t29 -69.5t-29 -69.5t-76 -27.5z" />
    <glyph glyph-name="Igrave" unicode="&#xcc;" horiz-adv-x="533" 
d="M176 0v1346h180v-1346h-180zM221 1462l-257 269h193l194 -269h-130z" />
    <glyph glyph-name="uni1EC8" unicode="&#x1ec8;" horiz-adv-x="533" 
d="M176 0v1346h180v-1346h-180zM229 1505l-43 78q35 10 63.5 28.5t28.5 48.5q0 38 -25.5 50t-75.5 12h-13v102h34q118 0 177 -36t59 -111q0 -71 -57.5 -115t-147.5 -57zM186 1583l112 -12v-110h-112v122z" />
    <glyph glyph-name="Imacron" unicode="&#x12a;" horiz-adv-x="533" 
d="M176 0v1346h180v-1346h-180zM-6 1524v123h545v-123h-545z" />
    <glyph glyph-name="Iogonek" unicode="&#x12e;" horiz-adv-x="533" 
d="M176 0v1346h180v-1346h-180zM228 -375q-76 0 -129.5 43t-53.5 119q0 51 31.5 101t85 89.5t118.5 56.5l63 -18q-88 -57 -122 -109.5t-34 -94.5q0 -35 20.5 -53.5t51.5 -18.5q34 0 63.5 8.5t61.5 22.5v-111q-29 -16 -63.5 -25.5t-92.5 -9.5z" />
    <glyph glyph-name="Itilde" unicode="&#x128;" horiz-adv-x="533" 
d="M176 0v1346h180v-1346h-180zM-25 1484q10 92 47.5 146t112.5 54q41 0 80.5 -14t76.5 -31q33 -14 59.5 -23t48.5 -9q24 0 40 20t20 62h98q-10 -89 -45.5 -141.5t-109.5 -52.5q-44 0 -83 13.5t-74 28.5q-34 15 -60 24.5t-49 9.5q-27 0 -43 -21t-21 -66h-98z" />
    <glyph glyph-name="J" unicode="J" horiz-adv-x="678" 
d="M37 -10v153h71q134 0 184 61.5t50 199.5v942h177v-945q0 -143 -40 -234t-127.5 -134t-229.5 -43h-85z" />
    <glyph glyph-name="Jcircumflex" unicode="&#x134;" horiz-adv-x="678" 
d="M37 -10v153h71q134 0 184 61.5t50 199.5v942h177v-945q0 -143 -40 -234t-127.5 -134t-229.5 -43h-85zM135 1462l214 271h167l214 -271h-139l-158 173l-160 -173h-138z" />
    <glyph glyph-name="K" unicode="K" horiz-adv-x="1164" 
d="M176 0v1346h180v-647l553 647h206l-559 -635l606 -711h-221l-585 691v-691h-180z" />
    <glyph glyph-name="uni0136" unicode="&#x136;" horiz-adv-x="1164" 
d="M176 0v1346h180v-647l553 647h206l-559 -635l606 -711h-221l-585 691v-691h-180zM566 -382l-20 65q33 13 62.5 34t38.5 52q-38 4 -62 28.5t-24 58.5q0 36 26.5 60.5t72.5 24.5q44 0 74.5 -27.5t30.5 -80.5q0 -81 -59 -139t-140 -76z" />
    <glyph glyph-name="uni0198" unicode="&#x198;" horiz-adv-x="1164" 
d="M176 0v1346h180v-647l194 10l612 -709h-210l-596 691v-691h-180zM1121 1346v-154h-47q-57 0 -102.5 -18t-93.5 -63.5t-114 -129.5l-214 -272l-194 -10l280 361q83 107 144 169.5t123 89.5t148 27h70z" />
    <glyph glyph-name="L" unicode="L" horiz-adv-x="1023" 
d="M176 0v1346h180v-1191h629v-155h-809z" />
    <glyph glyph-name="Lacute" unicode="&#x139;" horiz-adv-x="1023" 
d="M176 0v1346h180v-1191h629v-155h-809zM181 1462l194 269h193l-257 -269h-130z" />
    <glyph glyph-name="Lcaron" unicode="&#x13d;" horiz-adv-x="1023" 
d="M176 0v1346h180v-1191h629v-155h-809zM625 1028l66 318h166l-120 -318h-112z" />
    <glyph glyph-name="uni013B" unicode="&#x13b;" horiz-adv-x="1023" 
d="M176 0v1346h180v-1191h629v-155h-809zM512 -382l-20 65q33 13 62.5 34t38.5 52q-38 4 -62 28.5t-24 58.5q0 36 26.5 60.5t72.5 24.5q44 0 74.5 -27.5t30.5 -80.5q0 -81 -59 -139t-140 -76z" />
    <glyph glyph-name="Ldot" unicode="&#x13f;" horiz-adv-x="1023" 
d="M176 0v1346h180v-1191h629v-155h-809zM770 629q-56 0 -93 36.5t-37 89.5q0 55 37 90.5t93 35.5q55 0 91 -35.5t36 -90.5q0 -53 -36 -89.5t-91 -36.5z" />
    <glyph glyph-name="Lslash" unicode="&#x141;" horiz-adv-x="1023" 
d="M0 384v145l630 377v-145zM176 0v1346h180v-1191h629v-155h-809z" />
    <glyph glyph-name="M" unicode="M" horiz-adv-x="1618" 
d="M176 0v1346h197l479 -793h-73l470 793h192v-1346h-177v1196h62l-457 -773h-118l-464 773h62v-1196h-173z" />
    <glyph glyph-name="N" unicode="N" horiz-adv-x="1446" 
d="M176 0v1346h184l738 -1071v1071h171v-1346h-184l-739 1073v-1073h-170z" />
    <glyph glyph-name="Nacute" unicode="&#x143;" horiz-adv-x="1446" 
d="M176 0v1346h184l738 -1071v1071h171v-1346h-184l-739 1073v-1073h-170zM660 1462l194 269h193l-257 -269h-130z" />
    <glyph glyph-name="Ncaron" unicode="&#x147;" horiz-adv-x="1446" 
d="M176 0v1346h184l738 -1071v1071h171v-1346h-184l-739 1073v-1073h-170zM661 1462l-214 271h138l158 -173l160 173h139l-214 -271h-167z" />
    <glyph glyph-name="uni0145" unicode="&#x145;" horiz-adv-x="1446" 
d="M176 0v1346h184l738 -1071v1071h171v-1346h-184l-739 1073v-1073h-170zM628 -382l-20 65q33 13 62.5 34t38.5 52q-38 4 -62 28.5t-24 58.5q0 36 26.5 60.5t72.5 24.5q44 0 74.5 -27.5t30.5 -80.5q0 -81 -59 -139t-140 -76z" />
    <glyph glyph-name="uni01F8" unicode="&#x1f8;" horiz-adv-x="1446" 
d="M176 0v1346h184l738 -1071v1071h171v-1346h-184l-739 1073v-1073h-170zM700 1462l-257 269h193l194 -269h-130z" />
    <glyph glyph-name="Ntilde" unicode="&#xd1;" horiz-adv-x="1446" 
d="M176 0v1346h184l738 -1071v1071h171v-1346h-184l-739 1073v-1073h-170zM454 1484q10 92 47.5 146t112.5 54q41 0 80.5 -14t76.5 -31q33 -14 59.5 -23t48.5 -9q24 0 40 20t20 62h98q-10 -89 -45.5 -141.5t-109.5 -52.5q-44 0 -83 13.5t-74 28.5q-34 15 -60 24.5t-49 9.5
q-27 0 -43 -21t-21 -66h-98z" />
    <glyph glyph-name="Eng" unicode="&#x14a;" horiz-adv-x="1446" 
d="M176 0v1346h184l738 -1038v1038h171v-1290l-178 -31l-745 1048v-1073h-170zM786 -358v153h71q134 0 183.5 62t49.5 203l179 -4q0 -217 -93 -315.5t-305 -98.5h-85z" />
    <glyph glyph-name="O" unicode="O" horiz-adv-x="1500" 
d="M750 -18q-211 0 -354 88t-215.5 243t-72.5 359t72.5 360t215.5 244t354 88t353 -88t214.5 -244t72.5 -360t-72.5 -359t-214.5 -243t-353 -88zM750 129q162 0 262 73t146.5 196.5t46.5 273.5q0 151 -46.5 274.5t-146.5 197t-262 73.5t-262.5 -73.5t-146.5 -197t-46 -274.5
q0 -150 46 -273.5t146.5 -196.5t262.5 -73z" />
    <glyph glyph-name="Oacute" unicode="&#xd3;" horiz-adv-x="1500" 
d="M750 -18q-211 0 -354 88t-215.5 243t-72.5 359t72.5 360t215.5 244t354 88t353 -88t214.5 -244t72.5 -360t-72.5 -359t-214.5 -243t-353 -88zM750 129q162 0 262 73t146.5 196.5t46.5 273.5q0 151 -46.5 274.5t-146.5 197t-262 73.5t-262.5 -73.5t-146.5 -197t-46 -274.5
q0 -150 46 -273.5t146.5 -196.5t262.5 -73zM665 1462l194 269h193l-257 -269h-130z" />
    <glyph glyph-name="Obreve" unicode="&#x14e;" horiz-adv-x="1500" 
d="M750 -18q-211 0 -354 88t-215.5 243t-72.5 359t72.5 360t215.5 244t354 88t353 -88t214.5 -244t72.5 -360t-72.5 -359t-214.5 -243t-353 -88zM750 129q162 0 262 73t146.5 196.5t46.5 273.5q0 151 -46.5 274.5t-146.5 197t-262 73.5t-262.5 -73.5t-146.5 -197t-46 -274.5
q0 -150 46 -273.5t146.5 -196.5t262.5 -73zM747 1481q-80 0 -142 30t-98 85.5t-41 134.5h105q4 -51 30.5 -83.5t65 -48.5t80.5 -16q43 0 81.5 16.5t65.5 49.5t34 82h107q-9 -77 -46.5 -133.5t-99 -86.5t-142.5 -30z" />
    <glyph glyph-name="Ocircumflex" unicode="&#xd4;" horiz-adv-x="1500" 
d="M750 -18q-211 0 -354 88t-215.5 243t-72.5 359t72.5 360t215.5 244t354 88t353 -88t214.5 -244t72.5 -360t-72.5 -359t-214.5 -243t-353 -88zM750 129q162 0 262 73t146.5 196.5t46.5 273.5q0 151 -46.5 274.5t-146.5 197t-262 73.5t-262.5 -73.5t-146.5 -197t-46 -274.5
q0 -150 46 -273.5t146.5 -196.5t262.5 -73zM452 1462l214 271h167l214 -271h-139l-158 173l-160 -173h-138z" />
    <glyph glyph-name="uni1ED0" unicode="&#x1ed0;" horiz-adv-x="1500" 
d="M750 -18q-211 0 -354 88t-215.5 243t-72.5 359t72.5 360t215.5 244t354 88t353 -88t214.5 -244t72.5 -360t-72.5 -359t-214.5 -243t-353 -88zM750 129q162 0 262 73t146.5 196.5t46.5 273.5q0 151 -46.5 274.5t-146.5 197t-262 73.5t-262.5 -73.5t-146.5 -197t-46 -274.5
q0 -150 46 -273.5t146.5 -196.5t262.5 -73zM447 1462l214 271h167l214 -271h-138l-158 173l-160 -173h-139zM938 1630l163 269h183l-226 -269h-120z" />
    <glyph glyph-name="uni1ED8" unicode="&#x1ed8;" horiz-adv-x="1500" 
d="M750 -18q-211 0 -354 88t-215.5 243t-72.5 359t72.5 360t215.5 244t354 88t353 -88t214.5 -244t72.5 -360t-72.5 -359t-214.5 -243t-353 -88zM750 129q162 0 262 73t146.5 196.5t46.5 273.5q0 151 -46.5 274.5t-146.5 197t-262 73.5t-262.5 -73.5t-146.5 -197t-46 -274.5
q0 -150 46 -273.5t146.5 -196.5t262.5 -73zM750 -291q-47 0 -76 27.5t-29 69.5t29 69.5t76 27.5t76 -27.5t29 -69.5t-29 -69.5t-76 -27.5zM452 1462l214 271h167l214 -271h-139l-158 173l-160 -173h-138z" />
    <glyph glyph-name="uni1ED2" unicode="&#x1ed2;" horiz-adv-x="1500" 
d="M750 -18q-211 0 -354 88t-215.5 243t-72.5 359t72.5 360t215.5 244t354 88t353 -88t214.5 -244t72.5 -360t-72.5 -359t-214.5 -243t-353 -88zM750 129q162 0 262 73t146.5 196.5t46.5 273.5q0 151 -46.5 274.5t-146.5 197t-262 73.5t-262.5 -73.5t-146.5 -197t-46 -274.5
q0 -150 46 -273.5t146.5 -196.5t262.5 -73zM447 1462l214 271h167l214 -271h-138l-158 173l-160 -173h-139zM548 1630h-119l-227 269h185z" />
    <glyph glyph-name="uni1ED4" unicode="&#x1ed4;" horiz-adv-x="1500" 
d="M750 -18q-211 0 -354 88t-215.5 243t-72.5 359t72.5 360t215.5 244t354 88t353 -88t214.5 -244t72.5 -360t-72.5 -359t-214.5 -243t-353 -88zM750 129q162 0 262 73t146.5 196.5t46.5 273.5q0 151 -46.5 274.5t-146.5 197t-262 73.5t-262.5 -73.5t-146.5 -197t-46 -274.5
q0 -150 46 -273.5t146.5 -196.5t262.5 -73zM447 1462l214 271h167l214 -271h-138l-158 173l-160 -173h-139zM984 1626l-42 62q35 10 63.5 34t28.5 60q0 37 -26 49t-74 12h-13v101h33q104 0 157 -35t53 -106q0 -74 -50 -119t-130 -58z" />
    <glyph glyph-name="uni1ED6" unicode="&#x1ed6;" horiz-adv-x="1500" 
d="M750 -18q-211 0 -354 88t-215.5 243t-72.5 359t72.5 360t215.5 244t354 88t353 -88t214.5 -244t72.5 -360t-72.5 -359t-214.5 -243t-353 -88zM750 129q162 0 262 73t146.5 196.5t46.5 273.5q0 151 -46.5 274.5t-146.5 197t-262 73.5t-262.5 -73.5t-146.5 -197t-46 -274.5
q0 -150 46 -273.5t146.5 -196.5t262.5 -73zM447 1462l214 268h167l214 -268h-138l-158 170l-160 -170h-139zM436 1795q11 89 53.5 142.5t127.5 53.5q37 0 75.5 -13.5t79.5 -31.5q35 -15 61 -23.5t48 -8.5q33 0 53.5 20t26.5 61h98q-11 -86 -51.5 -137.5t-123.5 -51.5
q-43 0 -83 13.5t-73 28.5q-37 16 -62 25t-47 9q-35 0 -57 -20.5t-28 -66.5h-98z" />
    <glyph glyph-name="Odieresis" unicode="&#xd6;" horiz-adv-x="1500" 
d="M750 -18q-211 0 -354 88t-215.5 243t-72.5 359t72.5 360t215.5 244t354 88t353 -88t214.5 -244t72.5 -360t-72.5 -359t-214.5 -243t-353 -88zM750 129q162 0 262 73t146.5 196.5t46.5 273.5q0 151 -46.5 274.5t-146.5 197t-262 73.5t-262.5 -73.5t-146.5 -197t-46 -274.5
q0 -150 46 -273.5t146.5 -196.5t262.5 -73zM926 1510q-40 0 -66.5 25t-26.5 65t26.5 65.5t66.5 25.5t67 -25.5t27 -65.5t-27 -65t-67 -25zM574 1510q-39 0 -66.5 25t-27.5 65t27.5 65.5t66.5 25.5q40 0 67 -25.5t27 -65.5t-27 -65t-67 -25z" />
    <glyph glyph-name="uni1ECC" unicode="&#x1ecc;" horiz-adv-x="1500" 
d="M750 -18q-211 0 -354 88t-215.5 243t-72.5 359t72.5 360t215.5 244t354 88t353 -88t214.5 -244t72.5 -360t-72.5 -359t-214.5 -243t-353 -88zM750 129q162 0 262 73t146.5 196.5t46.5 273.5q0 151 -46.5 274.5t-146.5 197t-262 73.5t-262.5 -73.5t-146.5 -197t-46 -274.5
q0 -150 46 -273.5t146.5 -196.5t262.5 -73zM750 -291q-47 0 -76 27.5t-29 69.5t29 69.5t76 27.5t76 -27.5t29 -69.5t-29 -69.5t-76 -27.5z" />
    <glyph glyph-name="Ograve" unicode="&#xd2;" horiz-adv-x="1500" 
d="M750 -18q-211 0 -354 88t-215.5 243t-72.5 359t72.5 360t215.5 244t354 88t353 -88t214.5 -244t72.5 -360t-72.5 -359t-214.5 -243t-353 -88zM750 129q162 0 262 73t146.5 196.5t46.5 273.5q0 151 -46.5 274.5t-146.5 197t-262 73.5t-262.5 -73.5t-146.5 -197t-46 -274.5
q0 -150 46 -273.5t146.5 -196.5t262.5 -73zM705 1462l-257 269h193l194 -269h-130z" />
    <glyph glyph-name="uni1ECE" unicode="&#x1ece;" horiz-adv-x="1500" 
d="M750 -18q-211 0 -354 88t-215.5 243t-72.5 359t72.5 360t215.5 244t354 88t353 -88t214.5 -244t72.5 -360t-72.5 -359t-214.5 -243t-353 -88zM750 129q162 0 262 73t146.5 196.5t46.5 273.5q0 151 -46.5 274.5t-146.5 197t-262 73.5t-262.5 -73.5t-146.5 -197t-46 -274.5
q0 -150 46 -273.5t146.5 -196.5t262.5 -73zM713 1505l-43 78q35 10 63.5 28.5t28.5 48.5q0 38 -25.5 50t-75.5 12h-13v102h34q118 0 177 -36t59 -111q0 -71 -57.5 -115t-147.5 -57zM670 1583l112 -12v-110h-112v122z" />
    <glyph glyph-name="Ohorn" unicode="&#x1a0;" horiz-adv-x="1570" 
d="M1318 997l-38 79q78 31 129 76t58 107l10 -8q-51 0 -85 32t-34 81q0 53 34 84.5t88 31.5q56 0 91.5 -37t35.5 -112q0 -62 -22 -115t-61.5 -95.5t-92 -73.5t-113.5 -50zM750 -18q-211 0 -354 88t-215.5 243t-72.5 359t72.5 360t215.5 244t354 88t353 -88t214.5 -244
t72.5 -360t-72.5 -359t-214.5 -243t-353 -88zM750 129q162 0 262 73t146.5 196.5t46.5 273.5q0 151 -46.5 274.5t-146.5 197t-262 73.5t-262.5 -73.5t-146.5 -197t-46 -274.5q0 -150 46 -273.5t146.5 -196.5t262.5 -73z" />
    <glyph glyph-name="uni1EDA" unicode="&#x1eda;" horiz-adv-x="1570" 
d="M1318 997l-38 79q78 31 129 76t58 107l10 -8q-51 0 -85 32t-34 81q0 53 34 84.5t88 31.5q56 0 91.5 -37t35.5 -112q0 -62 -22 -115t-61.5 -95.5t-92 -73.5t-113.5 -50zM750 -18q-211 0 -354 88t-215.5 243t-72.5 359t72.5 360t215.5 244t354 88t353 -88t214.5 -244
t72.5 -360t-72.5 -359t-214.5 -243t-353 -88zM750 129q162 0 262 73t146.5 196.5t46.5 273.5q0 151 -46.5 274.5t-146.5 197t-262 73.5t-262.5 -73.5t-146.5 -197t-46 -274.5q0 -150 46 -273.5t146.5 -196.5t262.5 -73zM665 1462l194 269h193l-257 -269h-130z" />
    <glyph glyph-name="uni1EE2" unicode="&#x1ee2;" horiz-adv-x="1570" 
d="M1318 997l-38 79q78 31 129 76t58 107l10 -8q-51 0 -85 32t-34 81q0 53 34 84.5t88 31.5q56 0 91.5 -37t35.5 -112q0 -62 -22 -115t-61.5 -95.5t-92 -73.5t-113.5 -50zM750 -18q-211 0 -354 88t-215.5 243t-72.5 359t72.5 360t215.5 244t354 88t353 -88t214.5 -244
t72.5 -360t-72.5 -359t-214.5 -243t-353 -88zM750 129q162 0 262 73t146.5 196.5t46.5 273.5q0 151 -46.5 274.5t-146.5 197t-262 73.5t-262.5 -73.5t-146.5 -197t-46 -274.5q0 -150 46 -273.5t146.5 -196.5t262.5 -73zM750 -291q-47 0 -76 27.5t-29 69.5t29 69.5t76 27.5
t76 -27.5t29 -69.5t-29 -69.5t-76 -27.5z" />
    <glyph glyph-name="uni1EDC" unicode="&#x1edc;" horiz-adv-x="1570" 
d="M1318 997l-38 79q78 31 129 76t58 107l10 -8q-51 0 -85 32t-34 81q0 53 34 84.5t88 31.5q56 0 91.5 -37t35.5 -112q0 -62 -22 -115t-61.5 -95.5t-92 -73.5t-113.5 -50zM750 -18q-211 0 -354 88t-215.5 243t-72.5 359t72.5 360t215.5 244t354 88t353 -88t214.5 -244
t72.5 -360t-72.5 -359t-214.5 -243t-353 -88zM750 129q162 0 262 73t146.5 196.5t46.5 273.5q0 151 -46.5 274.5t-146.5 197t-262 73.5t-262.5 -73.5t-146.5 -197t-46 -274.5q0 -150 46 -273.5t146.5 -196.5t262.5 -73zM705 1462l-257 269h193l194 -269h-130z" />
    <glyph glyph-name="uni1EDE" unicode="&#x1ede;" horiz-adv-x="1570" 
d="M1318 997l-38 79q78 31 129 76t58 107l10 -8q-51 0 -85 32t-34 81q0 53 34 84.5t88 31.5q56 0 91.5 -37t35.5 -112q0 -62 -22 -115t-61.5 -95.5t-92 -73.5t-113.5 -50zM750 -18q-211 0 -354 88t-215.5 243t-72.5 359t72.5 360t215.5 244t354 88t353 -88t214.5 -244
t72.5 -360t-72.5 -359t-214.5 -243t-353 -88zM750 129q162 0 262 73t146.5 196.5t46.5 273.5q0 151 -46.5 274.5t-146.5 197t-262 73.5t-262.5 -73.5t-146.5 -197t-46 -274.5q0 -150 46 -273.5t146.5 -196.5t262.5 -73zM713 1505l-43 78q35 10 63.5 28.5t28.5 48.5
q0 38 -25.5 50t-75.5 12h-13v102h34q118 0 177 -36t59 -111q0 -71 -57.5 -115t-147.5 -57zM670 1583l112 -12v-110h-112v122z" />
    <glyph glyph-name="uni1EE0" unicode="&#x1ee0;" horiz-adv-x="1570" 
d="M1318 997l-38 79q78 31 129 76t58 107l10 -8q-51 0 -85 32t-34 81q0 53 34 84.5t88 31.5q56 0 91.5 -37t35.5 -112q0 -62 -22 -115t-61.5 -95.5t-92 -73.5t-113.5 -50zM750 -18q-211 0 -354 88t-215.5 243t-72.5 359t72.5 360t215.5 244t354 88t353 -88t214.5 -244
t72.5 -360t-72.5 -359t-214.5 -243t-353 -88zM750 129q162 0 262 73t146.5 196.5t46.5 273.5q0 151 -46.5 274.5t-146.5 197t-262 73.5t-262.5 -73.5t-146.5 -197t-46 -274.5q0 -150 46 -273.5t146.5 -196.5t262.5 -73zM459 1484q10 92 47.5 146t112.5 54q41 0 80.5 -14
t76.5 -31q33 -14 59.5 -23t48.5 -9q24 0 40 20t20 62h98q-10 -89 -45.5 -141.5t-109.5 -52.5q-44 0 -83 13.5t-74 28.5q-34 15 -60 24.5t-49 9.5q-27 0 -43 -21t-21 -66h-98z" />
    <glyph glyph-name="Ohungarumlaut" unicode="&#x150;" horiz-adv-x="1500" 
d="M750 -18q-211 0 -354 88t-215.5 243t-72.5 359t72.5 360t215.5 244t354 88t353 -88t214.5 -244t72.5 -360t-72.5 -359t-214.5 -243t-353 -88zM750 129q162 0 262 73t146.5 196.5t46.5 273.5q0 151 -46.5 274.5t-146.5 197t-262 73.5t-262.5 -73.5t-146.5 -197t-46 -274.5
q0 -150 46 -273.5t146.5 -196.5t262.5 -73zM790 1462l175 270h172l-227 -270h-120zM504 1462l175 270h171l-227 -270h-119z" />
    <glyph glyph-name="Omacron" unicode="&#x14c;" horiz-adv-x="1500" 
d="M750 -18q-211 0 -354 88t-215.5 243t-72.5 359t72.5 360t215.5 244t354 88t353 -88t214.5 -244t72.5 -360t-72.5 -359t-214.5 -243t-353 -88zM750 129q162 0 262 73t146.5 196.5t46.5 273.5q0 151 -46.5 274.5t-146.5 197t-262 73.5t-262.5 -73.5t-146.5 -197t-46 -274.5
q0 -150 46 -273.5t146.5 -196.5t262.5 -73zM478 1524v123h545v-123h-545z" />
    <glyph glyph-name="uni01EA" unicode="&#x1ea;" horiz-adv-x="1500" 
d="M750 -18q-211 0 -354 88t-215.5 243t-72.5 359t72.5 360t215.5 244t354 88t353 -88t214.5 -244t72.5 -360t-72.5 -359t-214.5 -243t-353 -88zM750 129q162 0 262 73t146.5 196.5t46.5 273.5q0 151 -46.5 274.5t-146.5 197t-262 73.5t-262.5 -73.5t-146.5 -197t-46 -274.5
q0 -150 46 -273.5t146.5 -196.5t262.5 -73zM872 -375q-76 0 -129.5 43t-53.5 119q0 51 31.5 101t85 89.5t118.5 56.5l63 -18q-88 -57 -122 -109.5t-34 -94.5q0 -35 20.5 -53.5t51.5 -18.5q34 0 63.5 8.5t61.5 22.5v-111q-29 -16 -63.5 -25.5t-92.5 -9.5z" />
    <glyph glyph-name="uni0186" unicode="&#x186;" horiz-adv-x="1418" 
d="M668 -18q-151 0 -273 52t-199 156.5t-94 263.5h183q16 -161 118 -242t265 -81q164 0 264 72.5t145.5 195.5t45.5 273q0 151 -45.5 274t-145.5 197t-264 74q-92 0 -174 -32t-137 -97.5t-68 -166.5h-180q14 150 95.5 248.5t203.5 146.5t260 48q210 0 352.5 -88t216 -244
t73.5 -360t-73.5 -359t-216 -243t-352.5 -88z" />
    <glyph glyph-name="Oslash" unicode="&#xd8;" horiz-adv-x="1500" 
d="M203 -65l-95 81l1189 1393l93 -80zM750 -18q-211 0 -354 88t-215.5 243t-72.5 359t72.5 360t215.5 244t354 88t353 -88t214.5 -244t72.5 -360t-72.5 -359t-214.5 -243t-353 -88zM750 127q163 0 263.5 73.5t146.5 197t46 274.5q0 152 -46 275.5t-146.5 197t-263.5 73.5
t-264 -73.5t-147 -197t-46 -275.5q0 -151 46 -274.5t147 -197t264 -73.5z" />
    <glyph glyph-name="Oslashacute" unicode="&#x1fe;" horiz-adv-x="1500" 
d="M203 -65l-95 81l1189 1393l93 -80zM750 -18q-211 0 -354 88t-215.5 243t-72.5 359t72.5 360t215.5 244t354 88t353 -88t214.5 -244t72.5 -360t-72.5 -359t-214.5 -243t-353 -88zM750 127q163 0 263.5 73.5t146.5 197t46 274.5q0 152 -46 275.5t-146.5 197t-263.5 73.5
t-264 -73.5t-147 -197t-46 -275.5q0 -151 46 -274.5t147 -197t264 -73.5zM665 1462l194 269h193l-257 -269h-130z" />
    <glyph glyph-name="Otilde" unicode="&#xd5;" horiz-adv-x="1500" 
d="M750 -18q-211 0 -354 88t-215.5 243t-72.5 359t72.5 360t215.5 244t354 88t353 -88t214.5 -244t72.5 -360t-72.5 -359t-214.5 -243t-353 -88zM750 129q162 0 262 73t146.5 196.5t46.5 273.5q0 151 -46.5 274.5t-146.5 197t-262 73.5t-262.5 -73.5t-146.5 -197t-46 -274.5
q0 -150 46 -273.5t146.5 -196.5t262.5 -73zM459 1484q10 92 47.5 146t112.5 54q41 0 80.5 -14t76.5 -31q33 -14 59.5 -23t48.5 -9q24 0 40 20t20 62h98q-10 -89 -45.5 -141.5t-109.5 -52.5q-44 0 -83 13.5t-74 28.5q-34 15 -60 24.5t-49 9.5q-27 0 -43 -21t-21 -66h-98z" />
    <glyph glyph-name="OE" unicode="&#x152;" horiz-adv-x="2171" 
d="M742 -18q-207 0 -348.5 87.5t-213.5 243t-72 359.5t72 360t213.5 244t348.5 88q157 0 267.5 -50t180 -142.5t102 -219.5t32.5 -280q0 -152 -32.5 -279t-102 -219t-180 -142t-267.5 -50zM754 129q162 0 261.5 73t146 196.5t46.5 273.5q0 151 -46.5 274.5t-146 197
t-261.5 73.5q-163 0 -264 -73.5t-147 -197t-46 -274.5q0 -150 46 -273.5t147 -196.5t264 -73zM1209 0v1346h858v-150h-679v-429h625v-148h-625v-469h679v-150h-858z" />
    <glyph glyph-name="P" unicode="P" horiz-adv-x="1182" 
d="M176 0v1346h486q125 0 225 -47.5t158 -140t58 -226.5q0 -131 -58 -220t-158 -135t-225 -46h-306v-531h-180zM356 680h292q122 0 197.5 62.5t75.5 189.5q0 136 -76 201t-197 65h-292v-518z" />
    <glyph glyph-name="Thorn" unicode="&#xde;" horiz-adv-x="1182" 
d="M176 266v149h472q122 0 197.5 62t75.5 189q0 135 -76 200t-197 65h-472v149h486q125 0 225 -47.5t158 -139.5t58 -227q0 -130 -58 -219t-158 -135t-225 -46h-486zM176 0v1346h180v-1346h-180z" />
    <glyph glyph-name="Q" unicode="Q" horiz-adv-x="1500" 
d="M1259 -293q-124 0 -206.5 23.5t-135.5 66.5t-88 102t-66 130l137 40q30 -54 57 -92.5t64.5 -63t97 -36t154.5 -11.5h54v-159h-68zM750 -18q-211 0 -354 88t-215.5 243t-72.5 359t72.5 360t215.5 244t354 88t353 -88t214.5 -244t72.5 -360t-72.5 -359t-214.5 -243
t-353 -88zM750 129q162 0 262 73t146.5 196.5t46.5 273.5q0 151 -46.5 274.5t-146.5 197t-262 73.5t-262.5 -73.5t-146.5 -197t-46 -274.5q0 -150 46 -273.5t146.5 -196.5t262.5 -73z" />
    <glyph glyph-name="R" unicode="R" horiz-adv-x="1241" 
d="M176 0v1346h509q117 0 212.5 -37t152.5 -116t57 -205q0 -128 -71.5 -218t-209.5 -122q76 -11 125 -49t81.5 -102.5t56.5 -159.5l88 -337h-184l-77 309q-20 83 -47.5 141.5t-73.5 89t-123 30.5h-316v-570h-180zM356 720h306q74 0 134 28t95.5 81t35.5 128q0 113 -66.5 176
t-193.5 63h-311v-476z" />
    <glyph glyph-name="Racute" unicode="&#x154;" horiz-adv-x="1241" 
d="M176 0v1346h509q117 0 212.5 -37t152.5 -116t57 -205q0 -128 -71.5 -218t-209.5 -122q76 -11 125 -49t81.5 -102.5t56.5 -159.5l88 -337h-184l-77 309q-20 83 -47.5 141.5t-73.5 89t-123 30.5h-316v-570h-180zM356 720h306q74 0 134 28t95.5 81t35.5 128q0 113 -66.5 176
t-193.5 63h-311v-476zM535 1462l194 269h193l-257 -269h-130z" />
    <glyph glyph-name="Rcaron" unicode="&#x158;" horiz-adv-x="1241" 
d="M176 0v1346h509q117 0 212.5 -37t152.5 -116t57 -205q0 -128 -71.5 -218t-209.5 -122q76 -11 125 -49t81.5 -102.5t56.5 -159.5l88 -337h-184l-77 309q-20 83 -47.5 141.5t-73.5 89t-123 30.5h-316v-570h-180zM356 720h306q74 0 134 28t95.5 81t35.5 128q0 113 -66.5 176
t-193.5 63h-311v-476zM536 1462l-214 271h138l158 -173l160 173h139l-214 -271h-167z" />
    <glyph glyph-name="uni0156" unicode="&#x156;" horiz-adv-x="1241" 
d="M176 0v1346h509q117 0 212.5 -37t152.5 -116t57 -205q0 -128 -71.5 -218t-209.5 -122q76 -11 125 -49t81.5 -102.5t56.5 -159.5l88 -337h-184l-77 309q-20 83 -47.5 141.5t-73.5 89t-123 30.5h-316v-570h-180zM356 720h306q74 0 134 28t95.5 81t35.5 128q0 113 -66.5 176
t-193.5 63h-311v-476zM589 -382l-20 65q33 13 62.5 34t38.5 52q-38 4 -62 28.5t-24 58.5q0 36 26.5 60.5t72.5 24.5q44 0 74.5 -27.5t30.5 -80.5q0 -81 -59 -139t-140 -76z" />
    <glyph glyph-name="S" unicode="S" horiz-adv-x="1159" 
d="M589 -18q-144 0 -260 44t-184.5 138t-68.5 244h181q0 -107 46.5 -168t123.5 -86t169 -25q85 0 155.5 25.5t112.5 77t42 132.5q0 70 -33 115t-109.5 78.5t-205.5 66.5q-152 40 -250 87.5t-145.5 118.5t-47.5 180q0 115 54 193.5t155 119.5t240 41q130 0 238 -42
t172.5 -126t64.5 -209h-180q1 114 -84 172.5t-210 58.5q-129 0 -200.5 -51.5t-71.5 -150.5q0 -59 31 -98.5t106.5 -71.5t210.5 -67q156 -42 253.5 -90t143.5 -123t46 -197q0 -130 -65 -215.5t-177 -128.5t-253 -43z" />
    <glyph glyph-name="Sacute" unicode="&#x15a;" horiz-adv-x="1159" 
d="M589 -18q-144 0 -260 44t-184.5 138t-68.5 244h181q0 -107 46.5 -168t123.5 -86t169 -25q85 0 155.5 25.5t112.5 77t42 132.5q0 70 -33 115t-109.5 78.5t-205.5 66.5q-152 40 -250 87.5t-145.5 118.5t-47.5 180q0 115 54 193.5t155 119.5t240 41q130 0 238 -42
t172.5 -126t64.5 -209h-180q1 114 -84 172.5t-210 58.5q-129 0 -200.5 -51.5t-71.5 -150.5q0 -59 31 -98.5t106.5 -71.5t210.5 -67q156 -42 253.5 -90t143.5 -123t46 -197q0 -130 -65 -215.5t-177 -128.5t-253 -43zM495 1462l194 269h193l-257 -269h-130z" />
    <glyph glyph-name="Scaron" unicode="&#x160;" horiz-adv-x="1159" 
d="M589 -18q-144 0 -260 44t-184.5 138t-68.5 244h181q0 -107 46.5 -168t123.5 -86t169 -25q85 0 155.5 25.5t112.5 77t42 132.5q0 70 -33 115t-109.5 78.5t-205.5 66.5q-152 40 -250 87.5t-145.5 118.5t-47.5 180q0 115 54 193.5t155 119.5t240 41q130 0 238 -42
t172.5 -126t64.5 -209h-180q1 114 -84 172.5t-210 58.5q-129 0 -200.5 -51.5t-71.5 -150.5q0 -59 31 -98.5t106.5 -71.5t210.5 -67q156 -42 253.5 -90t143.5 -123t46 -197q0 -130 -65 -215.5t-177 -128.5t-253 -43zM496 1462l-214 271h138l158 -173l160 173h139l-214 -271
h-167z" />
    <glyph glyph-name="Scedilla" unicode="&#x15e;" horiz-adv-x="1159" 
d="M589 -18q-144 0 -260 44t-184.5 138t-68.5 244h181q0 -107 46.5 -168t123.5 -86t169 -25q85 0 155.5 25.5t112.5 77t42 132.5q0 70 -33 115t-109.5 78.5t-205.5 66.5q-152 40 -250 87.5t-145.5 118.5t-47.5 180q0 115 54 193.5t155 119.5t240 41q130 0 238 -42
t172.5 -126t64.5 -209h-180q1 114 -84 172.5t-210 58.5q-129 0 -200.5 -51.5t-71.5 -150.5q0 -59 31 -98.5t106.5 -71.5t210.5 -67q156 -42 253.5 -90t143.5 -123t46 -197q0 -130 -65 -215.5t-177 -128.5t-253 -43zM593 -382q-57 0 -100 9.5t-81 24.5l27 93
q26 -12 66.5 -20.5t81.5 -8.5q36 0 61 17t25 48q0 35 -32 52.5t-111 26.5l-44 5l132 177l81 -37l-68 -93l-30 23q94 -4 145.5 -42t51.5 -109q0 -55 -27 -92t-73 -55.5t-105 -18.5z" />
    <glyph glyph-name="Scircumflex" unicode="&#x15c;" horiz-adv-x="1159" 
d="M589 -18q-144 0 -260 44t-184.5 138t-68.5 244h181q0 -107 46.5 -168t123.5 -86t169 -25q85 0 155.5 25.5t112.5 77t42 132.5q0 70 -33 115t-109.5 78.5t-205.5 66.5q-152 40 -250 87.5t-145.5 118.5t-47.5 180q0 115 54 193.5t155 119.5t240 41q130 0 238 -42
t172.5 -126t64.5 -209h-180q1 114 -84 172.5t-210 58.5q-129 0 -200.5 -51.5t-71.5 -150.5q0 -59 31 -98.5t106.5 -71.5t210.5 -67q156 -42 253.5 -90t143.5 -123t46 -197q0 -130 -65 -215.5t-177 -128.5t-253 -43zM282 1462l214 271h167l214 -271h-139l-158 173l-160 -173
h-138z" />
    <glyph glyph-name="uni0218" unicode="&#x218;" horiz-adv-x="1159" 
d="M589 -18q-144 0 -260 44t-184.5 138t-68.5 244h181q0 -107 46.5 -168t123.5 -86t169 -25q85 0 155.5 25.5t112.5 77t42 132.5q0 70 -33 115t-109.5 78.5t-205.5 66.5q-152 40 -250 87.5t-145.5 118.5t-47.5 180q0 115 54 193.5t155 119.5t240 41q130 0 238 -42
t172.5 -126t64.5 -209h-180q1 114 -84 172.5t-210 58.5q-129 0 -200.5 -51.5t-71.5 -150.5q0 -59 31 -98.5t106.5 -71.5t210.5 -67q156 -42 253.5 -90t143.5 -123t46 -197q0 -130 -65 -215.5t-177 -128.5t-253 -43zM495 -382l-20 65q33 13 62.5 34t38.5 52q-38 4 -62 28.5
t-24 58.5q0 36 26.5 60.5t72.5 24.5q44 0 74.5 -27.5t30.5 -80.5q0 -81 -59 -139t-140 -76z" />
    <glyph glyph-name="uni1E62" unicode="&#x1e62;" horiz-adv-x="1159" 
d="M589 -18q-144 0 -260 44t-184.5 138t-68.5 244h181q0 -107 46.5 -168t123.5 -86t169 -25q85 0 155.5 25.5t112.5 77t42 132.5q0 70 -33 115t-109.5 78.5t-205.5 66.5q-152 40 -250 87.5t-145.5 118.5t-47.5 180q0 115 54 193.5t155 119.5t240 41q130 0 238 -42
t172.5 -126t64.5 -209h-180q1 114 -84 172.5t-210 58.5q-129 0 -200.5 -51.5t-71.5 -150.5q0 -59 31 -98.5t106.5 -71.5t210.5 -67q156 -42 253.5 -90t143.5 -123t46 -197q0 -130 -65 -215.5t-177 -128.5t-253 -43zM583 -291q-47 0 -76 27.5t-29 69.5t29 69.5t76 27.5
t76 -27.5t29 -69.5t-29 -69.5t-76 -27.5z" />
    <glyph glyph-name="uni1E9E" unicode="&#x1e9e;" horiz-adv-x="1370" 
d="M176 0v1346h957l1 -150h-779v-1196h-179zM888 -13q-114 0 -206 31.5t-145.5 101t-54.5 180.5h176q1 -64 32.5 -100t85 -51.5t117.5 -15.5q63 0 115.5 22t84 67.5t31.5 118.5q0 80 -43.5 131t-138 92.5t-248.5 91.5l-76 24v139l396 455l120 -78l-372 -437l-36 48
q191 -55 317.5 -113.5t189 -141t62.5 -210.5q0 -115 -53 -194.5t-145 -120t-209 -40.5z" />
    <glyph glyph-name="T" unicode="T" horiz-adv-x="980" 
d="M401 0v1195h-383v151h944v-151h-382v-1195h-179z" />
    <glyph glyph-name="Tbar" unicode="&#x166;" horiz-adv-x="980" 
d="M178 589v139h624v-139h-624zM401 0v1195h-383v151h944v-151h-382v-1195h-179z" />
    <glyph glyph-name="Tcaron" unicode="&#x164;" horiz-adv-x="980" 
d="M401 0v1195h-383v151h944v-151h-382v-1195h-179zM407 1462l-214 271h138l158 -173l160 173h139l-214 -271h-167z" />
    <glyph glyph-name="uni0162" unicode="&#x162;" horiz-adv-x="980" 
d="M401 0v1195h-383v151h944v-151h-382v-1195h-179zM459 -382q-57 0 -100 9.5t-81 24.5l27 93q26 -12 66.5 -20.5t81.5 -8.5q36 0 61 17t25 48q0 35 -32 52.5t-111 26.5l-44 5l132 177l81 -37l-68 -93l-30 23q94 -4 145.5 -42t51.5 -109q0 -55 -27 -92t-73 -55.5t-105 -18.5
z" />
    <glyph glyph-name="uni021A" unicode="&#x21a;" horiz-adv-x="980" 
d="M401 0v1195h-383v151h944v-151h-382v-1195h-179zM403 -382l-20 65q33 13 62.5 34t38.5 52q-38 4 -62 28.5t-24 58.5q0 36 26.5 60.5t72.5 24.5q44 0 74.5 -27.5t30.5 -80.5q0 -81 -59 -139t-140 -76z" />
    <glyph glyph-name="U" unicode="U" horiz-adv-x="1395" 
d="M696 -18q-189 0 -308 66.5t-174 184t-55 267.5v846h182v-824q0 -210 91.5 -299.5t264.5 -89.5q174 0 265 89.5t91 299.5v824h182v-846q0 -150 -55 -267.5t-173.5 -184t-310.5 -66.5z" />
    <glyph glyph-name="Uacute" unicode="&#xda;" horiz-adv-x="1395" 
d="M696 -18q-189 0 -308 66.5t-174 184t-55 267.5v846h182v-824q0 -210 91.5 -299.5t264.5 -89.5q174 0 265 89.5t91 299.5v824h182v-846q0 -150 -55 -267.5t-173.5 -184t-310.5 -66.5zM613 1462l194 269h193l-257 -269h-130z" />
    <glyph glyph-name="Ubreve" unicode="&#x16c;" horiz-adv-x="1395" 
d="M696 -18q-189 0 -308 66.5t-174 184t-55 267.5v846h182v-824q0 -210 91.5 -299.5t264.5 -89.5q174 0 265 89.5t91 299.5v824h182v-846q0 -150 -55 -267.5t-173.5 -184t-310.5 -66.5zM695 1481q-80 0 -142 30t-98 85.5t-41 134.5h105q4 -51 30.5 -83.5t65 -48.5t80.5 -16
q43 0 81.5 16.5t65.5 49.5t34 82h107q-9 -77 -46.5 -133.5t-99 -86.5t-142.5 -30z" />
    <glyph glyph-name="Ucircumflex" unicode="&#xdb;" horiz-adv-x="1395" 
d="M696 -18q-189 0 -308 66.5t-174 184t-55 267.5v846h182v-824q0 -210 91.5 -299.5t264.5 -89.5q174 0 265 89.5t91 299.5v824h182v-846q0 -150 -55 -267.5t-173.5 -184t-310.5 -66.5zM400 1462l214 271h167l214 -271h-139l-158 173l-160 -173h-138z" />
    <glyph glyph-name="Udieresis" unicode="&#xdc;" horiz-adv-x="1395" 
d="M696 -18q-189 0 -308 66.5t-174 184t-55 267.5v846h182v-824q0 -210 91.5 -299.5t264.5 -89.5q174 0 265 89.5t91 299.5v824h182v-846q0 -150 -55 -267.5t-173.5 -184t-310.5 -66.5zM874 1510q-40 0 -66.5 25t-26.5 65t26.5 65.5t66.5 25.5t67 -25.5t27 -65.5t-27 -65
t-67 -25zM522 1510q-39 0 -66.5 25t-27.5 65t27.5 65.5t66.5 25.5q40 0 67 -25.5t27 -65.5t-27 -65t-67 -25z" />
    <glyph glyph-name="uni1EE4" unicode="&#x1ee4;" horiz-adv-x="1395" 
d="M696 -18q-189 0 -308 66.5t-174 184t-55 267.5v846h182v-824q0 -210 91.5 -299.5t264.5 -89.5q174 0 265 89.5t91 299.5v824h182v-846q0 -150 -55 -267.5t-173.5 -184t-310.5 -66.5zM698 -291q-47 0 -76 27.5t-29 69.5t29 69.5t76 27.5t76 -27.5t29 -69.5t-29 -69.5
t-76 -27.5z" />
    <glyph glyph-name="Ugrave" unicode="&#xd9;" horiz-adv-x="1395" 
d="M696 -18q-189 0 -308 66.5t-174 184t-55 267.5v846h182v-824q0 -210 91.5 -299.5t264.5 -89.5q174 0 265 89.5t91 299.5v824h182v-846q0 -150 -55 -267.5t-173.5 -184t-310.5 -66.5zM653 1462l-257 269h193l194 -269h-130z" />
    <glyph glyph-name="uni1EE6" unicode="&#x1ee6;" horiz-adv-x="1395" 
d="M696 -18q-189 0 -308 66.5t-174 184t-55 267.5v846h182v-824q0 -210 91.5 -299.5t264.5 -89.5q174 0 265 89.5t91 299.5v824h182v-846q0 -150 -55 -267.5t-173.5 -184t-310.5 -66.5zM661 1505l-43 78q35 10 63.5 28.5t28.5 48.5q0 38 -25.5 50t-75.5 12h-13v102h34
q118 0 177 -36t59 -111q0 -71 -57.5 -115t-147.5 -57zM618 1583l112 -12v-110h-112v122z" />
    <glyph glyph-name="Uhorn" unicode="&#x1af;" horiz-adv-x="1544" 
d="M1224 997l-37 79q107 31 177.5 76t81.5 107l10 -8q-51 0 -85 32t-34 81q0 53 34 84.5t88 31.5q57 0 91.5 -37t34.5 -112q0 -62 -26.5 -115t-75.5 -95.5t-115 -73.5t-144 -50zM696 -18q-189 0 -308 66.5t-174 184t-55 267.5v846h182v-824q0 -210 91.5 -299.5t264.5 -89.5
q174 0 265 89.5t91 299.5v824h182v-846q0 -150 -55 -267.5t-173.5 -184t-310.5 -66.5z" />
    <glyph glyph-name="uni1EE8" unicode="&#x1ee8;" horiz-adv-x="1544" 
d="M1224 997l-37 79q107 31 177.5 76t81.5 107l10 -8q-51 0 -85 32t-34 81q0 53 34 84.5t88 31.5q57 0 91.5 -37t34.5 -112q0 -62 -26.5 -115t-75.5 -95.5t-115 -73.5t-144 -50zM696 -18q-189 0 -308 66.5t-174 184t-55 267.5v846h182v-824q0 -210 91.5 -299.5t264.5 -89.5
q174 0 265 89.5t91 299.5v824h182v-846q0 -150 -55 -267.5t-173.5 -184t-310.5 -66.5zM618 1462l194 269h193l-257 -269h-130z" />
    <glyph glyph-name="uni1EF0" unicode="&#x1ef0;" horiz-adv-x="1544" 
d="M1224 997l-37 79q107 31 177.5 76t81.5 107l10 -8q-51 0 -85 32t-34 81q0 53 34 84.5t88 31.5q57 0 91.5 -37t34.5 -112q0 -62 -26.5 -115t-75.5 -95.5t-115 -73.5t-144 -50zM696 -18q-189 0 -308 66.5t-174 184t-55 267.5v846h182v-824q0 -210 91.5 -299.5t264.5 -89.5
q174 0 265 89.5t91 299.5v824h182v-846q0 -150 -55 -267.5t-173.5 -184t-310.5 -66.5zM768 -291q-47 0 -76 27.5t-29 69.5t29 69.5t76 27.5t76 -27.5t29 -69.5t-29 -69.5t-76 -27.5z" />
    <glyph glyph-name="uni1EEA" unicode="&#x1eea;" horiz-adv-x="1544" 
d="M1224 997l-37 79q107 31 177.5 76t81.5 107l10 -8q-51 0 -85 32t-34 81q0 53 34 84.5t88 31.5q57 0 91.5 -37t34.5 -112q0 -62 -26.5 -115t-75.5 -95.5t-115 -73.5t-144 -50zM696 -18q-189 0 -308 66.5t-174 184t-55 267.5v846h182v-824q0 -210 91.5 -299.5t264.5 -89.5
q174 0 265 89.5t91 299.5v824h182v-846q0 -150 -55 -267.5t-173.5 -184t-310.5 -66.5zM658 1462l-257 269h193l194 -269h-130z" />
    <glyph glyph-name="uni1EEC" unicode="&#x1eec;" horiz-adv-x="1544" 
d="M1224 997l-37 79q107 31 177.5 76t81.5 107l10 -8q-51 0 -85 32t-34 81q0 53 34 84.5t88 31.5q57 0 91.5 -37t34.5 -112q0 -62 -26.5 -115t-75.5 -95.5t-115 -73.5t-144 -50zM696 -18q-189 0 -308 66.5t-174 184t-55 267.5v846h182v-824q0 -210 91.5 -299.5t264.5 -89.5
q174 0 265 89.5t91 299.5v824h182v-846q0 -150 -55 -267.5t-173.5 -184t-310.5 -66.5zM666 1504l-43 78q35 10 63.5 28.5t28.5 48.5q0 38 -25.5 50t-75.5 12h-13v102h34q118 0 177 -36t59 -111q0 -71 -57.5 -115t-147.5 -57zM623 1582l112 -12v-110h-112v122z" />
    <glyph glyph-name="uni1EEE" unicode="&#x1eee;" horiz-adv-x="1544" 
d="M1224 997l-37 79q107 31 177.5 76t81.5 107l10 -8q-51 0 -85 32t-34 81q0 53 34 84.5t88 31.5q57 0 91.5 -37t34.5 -112q0 -62 -26.5 -115t-75.5 -95.5t-115 -73.5t-144 -50zM696 -18q-189 0 -308 66.5t-174 184t-55 267.5v846h182v-824q0 -210 91.5 -299.5t264.5 -89.5
q174 0 265 89.5t91 299.5v824h182v-846q0 -150 -55 -267.5t-173.5 -184t-310.5 -66.5zM412 1484q10 92 47.5 146t112.5 54q41 0 80.5 -14t76.5 -31q33 -14 59.5 -23t48.5 -9q24 0 40 20t20 62h98q-10 -89 -45.5 -141.5t-109.5 -52.5q-44 0 -83 13.5t-74 28.5
q-34 15 -60 24.5t-49 9.5q-27 0 -43 -21t-21 -66h-98z" />
    <glyph glyph-name="Uhungarumlaut" unicode="&#x170;" horiz-adv-x="1395" 
d="M696 -18q-189 0 -308 66.5t-174 184t-55 267.5v846h182v-824q0 -210 91.5 -299.5t264.5 -89.5q174 0 265 89.5t91 299.5v824h182v-846q0 -150 -55 -267.5t-173.5 -184t-310.5 -66.5zM738 1462l175 270h172l-227 -270h-120zM452 1462l175 270h171l-227 -270h-119z" />
    <glyph glyph-name="Umacron" unicode="&#x16a;" horiz-adv-x="1395" 
d="M696 -18q-189 0 -308 66.5t-174 184t-55 267.5v846h182v-824q0 -210 91.5 -299.5t264.5 -89.5q174 0 265 89.5t91 299.5v824h182v-846q0 -150 -55 -267.5t-173.5 -184t-310.5 -66.5zM426 1524v123h545v-123h-545z" />
    <glyph glyph-name="Uogonek" unicode="&#x172;" horiz-adv-x="1395" 
d="M696 -18q-189 0 -308 66.5t-174 184t-55 267.5v846h182v-824q0 -210 91.5 -299.5t264.5 -89.5q174 0 265 89.5t91 299.5v824h182v-846q0 -150 -55 -267.5t-173.5 -184t-310.5 -66.5zM838 -375q-76 0 -129.5 43t-53.5 119q0 51 31.5 101t85 89.5t118.5 56.5l63 -18
q-88 -57 -122 -109.5t-34 -94.5q0 -35 20.5 -53.5t51.5 -18.5q34 0 63.5 8.5t61.5 22.5v-111q-29 -16 -63.5 -25.5t-92.5 -9.5z" />
    <glyph glyph-name="Uring" unicode="&#x16e;" horiz-adv-x="1395" 
d="M696 -18q-189 0 -308 66.5t-174 184t-55 267.5v846h182v-824q0 -210 91.5 -299.5t264.5 -89.5q174 0 265 89.5t91 299.5v824h182v-846q0 -150 -55 -267.5t-173.5 -184t-310.5 -66.5zM698 1377q-92 0 -150 56t-58 147q0 90 58 145.5t150 55.5t150 -55.5t58 -145.5
q0 -91 -58 -147t-150 -56zM698 1472q47 0 76 30.5t29 78.5q0 46 -29 76.5t-76 30.5q-46 0 -75 -30.5t-29 -76.5q0 -48 29 -78.5t75 -30.5z" />
    <glyph glyph-name="Utilde" unicode="&#x168;" horiz-adv-x="1395" 
d="M696 -18q-189 0 -308 66.5t-174 184t-55 267.5v846h182v-824q0 -210 91.5 -299.5t264.5 -89.5q174 0 265 89.5t91 299.5v824h182v-846q0 -150 -55 -267.5t-173.5 -184t-310.5 -66.5zM407 1484q10 92 47.5 146t112.5 54q41 0 80.5 -14t76.5 -31q33 -14 59.5 -23t48.5 -9
q24 0 40 20t20 62h98q-10 -89 -45.5 -141.5t-109.5 -52.5q-44 0 -83 13.5t-74 28.5q-34 15 -60 24.5t-49 9.5q-27 0 -43 -21t-21 -66h-98z" />
    <glyph glyph-name="V" unicode="V" horiz-adv-x="1199" 
d="M492 0l-484 1346h191l400 -1156l402 1156h190l-489 -1346h-210z" />
    <glyph glyph-name="uni0194" unicode="&#x194;" horiz-adv-x="1068" 
d="M537 -16q-74 0 -130 27.5t-87 80.5t-31 131q0 64 23.5 130t65.5 139.5t97 160.5l34 57l10 6l347 630h194l-469 -796q-34 -58 -66 -116t-52.5 -111t-20.5 -98q0 -52 22.5 -82t62.5 -30q36 0 59 30.5t23 82.5q0 66 -45 149.5t-100 178.5l-466 792h202l338 -626l12 -9
l38 -61q56 -89 97.5 -161.5t64 -137t22.5 -128.5q0 -76 -29 -129.5t-84 -81.5t-132 -28z" />
    <glyph glyph-name="uni01B2" unicode="&#x1b2;" horiz-adv-x="1395" 
d="M696 -18q-189 0 -308 68t-174 185t-55 265v846h182v-824q0 -205 91.5 -297t264.5 -92q174 0 265 92t91 297v410l182 4v-436q0 -148 -55 -265t-173.5 -185t-310.5 -68zM1053 932q0 141 -48.5 202.5t-180.5 61.5h-56v154h70q212 0 304.5 -98.5t92.5 -315.5z" />
    <glyph glyph-name="W" unicode="W" horiz-adv-x="1827" 
d="M396 0l-394 1346h189l304 -1123l321 1123h201l322 -1123l306 1123h180l-393 -1346h-188l-331 1138l-326 -1138h-191z" />
    <glyph glyph-name="Wacute" unicode="&#x1e82;" horiz-adv-x="1827" 
d="M396 0l-394 1346h189l304 -1123l321 1123h201l322 -1123l306 1123h180l-393 -1346h-188l-331 1138l-326 -1138h-191zM832 1462l194 269h193l-257 -269h-130z" />
    <glyph glyph-name="Wcircumflex" unicode="&#x174;" horiz-adv-x="1827" 
d="M396 0l-394 1346h189l304 -1123l321 1123h201l322 -1123l306 1123h180l-393 -1346h-188l-331 1138l-326 -1138h-191zM619 1462l214 271h167l214 -271h-139l-158 173l-160 -173h-138z" />
    <glyph glyph-name="Wdieresis" unicode="&#x1e84;" horiz-adv-x="1827" 
d="M396 0l-394 1346h189l304 -1123l321 1123h201l322 -1123l306 1123h180l-393 -1346h-188l-331 1138l-326 -1138h-191zM1093 1510q-40 0 -66.5 25t-26.5 65t26.5 65.5t66.5 25.5t67 -25.5t27 -65.5t-27 -65t-67 -25zM741 1510q-39 0 -66.5 25t-27.5 65t27.5 65.5t66.5 25.5
q40 0 67 -25.5t27 -65.5t-27 -65t-67 -25z" />
    <glyph glyph-name="Wgrave" unicode="&#x1e80;" horiz-adv-x="1827" 
d="M396 0l-394 1346h189l304 -1123l321 1123h201l322 -1123l306 1123h180l-393 -1346h-188l-331 1138l-326 -1138h-191zM872 1462l-257 269h193l194 -269h-130z" />
    <glyph glyph-name="X" unicode="X" horiz-adv-x="1132" 
d="M14 0l449 697l-418 649h204l316 -527l329 527h194l-419 -652l450 -694h-210l-344 558l-354 -558h-197z" />
    <glyph glyph-name="Y" unicode="Y" horiz-adv-x="1105" 
d="M461 0v536l-461 810h198l355 -650l353 650h199l-462 -810v-536h-182z" />
    <glyph glyph-name="Yacute" unicode="&#xdd;" horiz-adv-x="1105" 
d="M461 0v536l-461 810h198l355 -650l353 650h199l-462 -810v-536h-182zM468 1462l194 269h193l-257 -269h-130z" />
    <glyph glyph-name="Ycircumflex" unicode="&#x176;" horiz-adv-x="1105" 
d="M461 0v536l-461 810h198l355 -650l353 650h199l-462 -810v-536h-182zM255 1462l214 271h167l214 -271h-139l-158 173l-160 -173h-138z" />
    <glyph glyph-name="Ydieresis" unicode="&#x178;" horiz-adv-x="1105" 
d="M461 0v536l-461 810h198l355 -650l353 650h199l-462 -810v-536h-182zM729 1510q-40 0 -66.5 25t-26.5 65t26.5 65.5t66.5 25.5t67 -25.5t27 -65.5t-27 -65t-67 -25zM377 1510q-39 0 -66.5 25t-27.5 65t27.5 65.5t66.5 25.5q40 0 67 -25.5t27 -65.5t-27 -65t-67 -25z" />
    <glyph glyph-name="uni1EF4" unicode="&#x1ef4;" horiz-adv-x="1105" 
d="M461 0v536l-461 810h198l355 -650l353 650h199l-462 -810v-536h-182zM553 -291q-47 0 -76 27.5t-29 69.5t29 69.5t76 27.5t76 -27.5t29 -69.5t-29 -69.5t-76 -27.5z" />
    <glyph glyph-name="Ygrave" unicode="&#x1ef2;" horiz-adv-x="1105" 
d="M461 0v536l-461 810h198l355 -650l353 650h199l-462 -810v-536h-182zM508 1462l-257 269h193l194 -269h-130z" />
    <glyph glyph-name="uni01B3" unicode="&#x1b3;" horiz-adv-x="1140" 
d="M461 0v536l-461 810h203l350 -655l90 -155v-536h-182zM643 536l-139 58l201 458q55 123 104 186t106 85.5t134 22.5h73v-154h-47q-49 0 -87 -16.5t-73 -64.5t-78 -142z" />
    <glyph glyph-name="uni1EF6" unicode="&#x1ef6;" horiz-adv-x="1105" 
d="M461 0v536l-461 810h198l355 -650l353 650h199l-462 -810v-536h-182zM516 1505l-43 78q35 10 63.5 28.5t28.5 48.5q0 38 -25.5 50t-75.5 12h-13v102h34q118 0 177 -36t59 -111q0 -71 -57.5 -115t-147.5 -57zM473 1583l112 -12v-110h-112v122z" />
    <glyph glyph-name="uni0232" unicode="&#x232;" horiz-adv-x="1105" 
d="M461 0v536l-461 810h198l355 -650l353 650h199l-462 -810v-536h-182zM281 1524v123h545v-123h-545z" />
    <glyph glyph-name="uni1EF8" unicode="&#x1ef8;" horiz-adv-x="1105" 
d="M461 0v536l-461 810h198l355 -650l353 650h199l-462 -810v-536h-182zM262 1484q10 92 47.5 146t112.5 54q41 0 80.5 -14t76.5 -31q33 -14 59.5 -23t48.5 -9q24 0 40 20t20 62h98q-10 -89 -45.5 -141.5t-109.5 -52.5q-44 0 -83 13.5t-74 28.5q-34 15 -60 24.5t-49 9.5
q-27 0 -43 -21t-21 -66h-98z" />
    <glyph glyph-name="Z" unicode="Z" horiz-adv-x="1056" 
d="M39 0v142l729 1053h-682v151h893v-137l-733 -1058h771v-151h-978z" />
    <glyph glyph-name="Zacute" unicode="&#x179;" horiz-adv-x="1056" 
d="M39 0v142l729 1053h-682v151h893v-137l-733 -1058h771v-151h-978zM447 1462l194 269h193l-257 -269h-130z" />
    <glyph glyph-name="Zcaron" unicode="&#x17d;" horiz-adv-x="1056" 
d="M39 0v142l729 1053h-682v151h893v-137l-733 -1058h771v-151h-978zM448 1462l-214 271h138l158 -173l160 173h139l-214 -271h-167z" />
    <glyph glyph-name="Zdotaccent" unicode="&#x17b;" horiz-adv-x="1056" 
d="M39 0v142l729 1053h-682v151h893v-137l-733 -1058h771v-151h-978zM532 1503q-47 0 -76 27.5t-29 69.5t29 69.5t76 27.5t76 -27.5t29 -69.5t-29 -69.5t-76 -27.5z" />
    <glyph glyph-name="I.aalt" horiz-adv-x="785" 
d="M303 0v1346h180v-1346h-180zM56 152h673v-152h-673v152zM56 1346h673v-152h-673v152z" />
    <glyph glyph-name="Iacute.aalt" horiz-adv-x="785" 
d="M303 0v1346h180v-1346h-180zM56 152h673v-152h-673v152zM56 1346h673v-152h-673v152zM308 1462l194 269h193l-257 -269h-130z" />
    <glyph glyph-name="Ibreve.aalt" horiz-adv-x="785" 
d="M303 0v1346h180v-1346h-180zM56 152h673v-152h-673v152zM56 1346h673v-152h-673v152zM391 1490q-114 0 -183 66.5t-83 185.5h103q10 -77 57.5 -110t105.5 -33q60 0 110 34t59 109h97q-12 -117 -81.5 -184.5t-184.5 -67.5z" />
    <glyph glyph-name="Icircumflex.aalt" horiz-adv-x="785" 
d="M303 0v1346h180v-1346h-180zM56 152h673v-152h-673v152zM56 1346h673v-152h-673v152zM95 1462l214 271h167l214 -271h-139l-158 173l-160 -173h-138z" />
    <glyph glyph-name="Idieresis.aalt" horiz-adv-x="785" 
d="M303 0v1346h180v-1346h-180zM56 152h673v-152h-673v152zM56 1346h673v-152h-673v152zM569 1510q-40 0 -66.5 25t-26.5 65t26.5 65.5t66.5 25.5t67 -25.5t27 -65.5t-27 -65t-67 -25zM217 1510q-39 0 -66.5 25t-27.5 65t27.5 65.5t66.5 25.5q40 0 67 -25.5t27 -65.5
t-27 -65t-67 -25z" />
    <glyph glyph-name="Idotaccent.aalt" horiz-adv-x="785" 
d="M303 0v1346h180v-1346h-180zM56 152h673v-152h-673v152zM56 1346h673v-152h-673v152zM393 1503q-47 0 -76 27.5t-29 69.5t29 69.5t76 27.5t76 -27.5t29 -69.5t-29 -69.5t-76 -27.5z" />
    <glyph glyph-name="uni1ECA.aalt" horiz-adv-x="785" 
d="M303 0v1346h180v-1346h-180zM56 152h673v-152h-673v152zM56 1346h673v-152h-673v152zM393 -291q-47 0 -76 27.5t-29 69.5t29 69.5t76 27.5t76 -27.5t29 -69.5t-29 -69.5t-76 -27.5z" />
    <glyph glyph-name="Igrave.aalt" horiz-adv-x="785" 
d="M303 0v1346h180v-1346h-180zM56 152h673v-152h-673v152zM56 1346h673v-152h-673v152zM348 1462l-257 269h193l194 -269h-130z" />
    <glyph glyph-name="Imacron.aalt" horiz-adv-x="785" 
d="M303 0v1346h180v-1346h-180zM56 152h673v-152h-673v152zM56 1346h673v-152h-673v152zM121 1524v123h545v-123h-545z" />
    <glyph glyph-name="Iogonek.aalt" horiz-adv-x="785" 
d="M303 0v1346h180v-1346h-180zM56 152h673v-152h-673v152zM56 1346h673v-152h-673v152zM397 -373q-76 0 -129.5 43t-53.5 119q0 51 31.5 101t85 89.5t118.5 56.5l63 -18q-88 -57 -122 -109.5t-34 -94.5q0 -35 20.5 -53.5t51.5 -18.5q34 0 63.5 8.5t61.5 22.5v-111
q-29 -16 -63.5 -25.5t-92.5 -9.5z" />
    <glyph glyph-name="Itilde.aalt" horiz-adv-x="785" 
d="M303 0v1346h180v-1346h-180zM56 152h673v-152h-673v152zM56 1346h673v-152h-673v152zM102 1484q10 92 47.5 146t112.5 54q41 0 80.5 -14t76.5 -31q33 -14 59.5 -23t48.5 -9q24 0 40 20t20 62h98q-10 -89 -45.5 -141.5t-109.5 -52.5q-44 0 -83 13.5t-74 28.5
q-34 15 -60 24.5t-49 9.5q-27 0 -43 -21t-21 -66h-98z" />
    <glyph glyph-name="a" unicode="a" horiz-adv-x="1088" 
d="M412 -18q-84 0 -153.5 32t-111 94.5t-41.5 154.5q0 131 82 199t232 92.5t351 26.5v68q0 125 -62 171.5t-157 46.5q-101 0 -170 -51t-69 -161h-162q0 120 51.5 194t142 108t207.5 34q75 0 143.5 -14t123 -51t86.5 -103.5t32 -171.5v-651h-156l-7 148
q-67 -75 -155.5 -120.5t-206.5 -45.5zM456 110q100 0 180 47t134 119v198q-266 -3 -381.5 -50t-115.5 -154q0 -73 46.5 -116.5t136.5 -43.5z" />
    <glyph glyph-name="aacute" unicode="&#xe1;" horiz-adv-x="1088" 
d="M412 -18q-84 0 -153.5 32t-111 94.5t-41.5 154.5q0 131 82 199t232 92.5t351 26.5v68q0 125 -62 171.5t-157 46.5q-101 0 -170 -51t-69 -161h-162q0 120 51.5 194t142 108t207.5 34q75 0 143.5 -14t123 -51t86.5 -103.5t32 -171.5v-651h-156l-7 148
q-67 -75 -155.5 -120.5t-206.5 -45.5zM456 110q100 0 180 47t134 119v198q-266 -3 -381.5 -50t-115.5 -154q0 -73 46.5 -116.5t136.5 -43.5zM465 1110l203 269h194l-268 -269h-129z" />
    <glyph glyph-name="abreve" unicode="&#x103;" horiz-adv-x="1088" 
d="M412 -18q-84 0 -153.5 32t-111 94.5t-41.5 154.5q0 131 82 199t232 92.5t351 26.5v68q0 125 -62 171.5t-157 46.5q-101 0 -170 -51t-69 -161h-162q0 120 51.5 194t142 108t207.5 34q75 0 143.5 -14t123 -51t86.5 -103.5t32 -171.5v-651h-156l-7 148
q-67 -75 -155.5 -120.5t-206.5 -45.5zM456 110q100 0 180 47t134 119v198q-266 -3 -381.5 -50t-115.5 -154q0 -73 46.5 -116.5t136.5 -43.5zM557 1118q-114 0 -183 66.5t-83 185.5h103q10 -77 57.5 -110t105.5 -33q60 0 110 34t59 109h97q-12 -117 -81.5 -184.5
t-184.5 -67.5z" />
    <glyph glyph-name="uni1EAF" unicode="&#x1eaf;" horiz-adv-x="1088" 
d="M412 -18q-84 0 -153.5 32t-111 94.5t-41.5 154.5q0 131 82 199t232 92.5t351 26.5v68q0 125 -62 171.5t-157 46.5q-101 0 -170 -51t-69 -161h-162q0 120 51.5 194t142 108t207.5 34q75 0 143.5 -14t123 -51t86.5 -103.5t32 -171.5v-651h-156l-7 148
q-67 -75 -155.5 -120.5t-206.5 -45.5zM456 110q100 0 180 47t134 119v198q-266 -3 -381.5 -50t-115.5 -154q0 -73 46.5 -116.5t136.5 -43.5zM557 1115q-123 0 -195 66.5t-87 185.5h96q7 -51 34.5 -82.5t67.5 -46t84 -14.5q45 0 86.5 15t70 46.5t35.5 81.5h94
q-14 -117 -87.5 -184.5t-198.5 -67.5zM493 1367l131 269h169l-201 -269h-99z" />
    <glyph glyph-name="uni1EB7" unicode="&#x1eb7;" horiz-adv-x="1088" 
d="M412 -18q-84 0 -153.5 32t-111 94.5t-41.5 154.5q0 131 82 199t232 92.5t351 26.5v68q0 125 -62 171.5t-157 46.5q-101 0 -170 -51t-69 -161h-162q0 120 51.5 194t142 108t207.5 34q75 0 143.5 -14t123 -51t86.5 -103.5t32 -171.5v-651h-156l-7 148
q-67 -75 -155.5 -120.5t-206.5 -45.5zM456 110q100 0 180 47t134 119v198q-266 -3 -381.5 -50t-115.5 -154q0 -73 46.5 -116.5t136.5 -43.5zM543 -291q-47 0 -76 27.5t-29 69.5t29 69.5t76 27.5t76 -27.5t29 -69.5t-29 -69.5t-76 -27.5zM557 1118q-114 0 -183 66.5
t-83 185.5h103q10 -77 57.5 -110t105.5 -33q60 0 110 34t59 109h97q-12 -117 -81.5 -184.5t-184.5 -67.5z" />
    <glyph glyph-name="uni1EB1" unicode="&#x1eb1;" horiz-adv-x="1088" 
d="M412 -18q-84 0 -153.5 32t-111 94.5t-41.5 154.5q0 131 82 199t232 92.5t351 26.5v68q0 125 -62 171.5t-157 46.5q-101 0 -170 -51t-69 -161h-162q0 120 51.5 194t142 108t207.5 34q75 0 143.5 -14t123 -51t86.5 -103.5t32 -171.5v-651h-156l-7 148
q-67 -75 -155.5 -120.5t-206.5 -45.5zM456 110q100 0 180 47t134 119v198q-266 -3 -381.5 -50t-115.5 -154q0 -73 46.5 -116.5t136.5 -43.5zM557 1115q-123 0 -195 66.5t-87 185.5h96q7 -51 34.5 -82.5t67.5 -46t84 -14.5q45 0 86.5 15t70 46.5t35.5 81.5h94
q-14 -117 -87.5 -184.5t-198.5 -67.5zM617 1367h-99l-201 269h168z" />
    <glyph glyph-name="uni1EB3" unicode="&#x1eb3;" horiz-adv-x="1088" 
d="M412 -18q-84 0 -153.5 32t-111 94.5t-41.5 154.5q0 131 82 199t232 92.5t351 26.5v68q0 125 -62 171.5t-157 46.5q-101 0 -170 -51t-69 -161h-162q0 120 51.5 194t142 108t207.5 34q75 0 143.5 -14t123 -51t86.5 -103.5t32 -171.5v-651h-156l-7 148
q-67 -75 -155.5 -120.5t-206.5 -45.5zM456 110q100 0 180 47t134 119v198q-266 -3 -381.5 -50t-115.5 -154q0 -73 46.5 -116.5t136.5 -43.5zM557 1115q-123 0 -195 66.5t-87 185.5h96q7 -51 34.5 -82.5t67.5 -46t84 -14.5q45 0 86.5 15t70 46.5t35.5 81.5h94
q-14 -117 -87.5 -184.5t-198.5 -67.5zM522 1367l-43 61q35 11 64 34.5t29 59.5q0 38 -26 50t-75 12h-13v101h34q104 0 157 -35t53 -106q0 -75 -50.5 -120t-129.5 -57z" />
    <glyph glyph-name="uni1EB5" unicode="&#x1eb5;" horiz-adv-x="1088" 
d="M412 -18q-84 0 -153.5 32t-111 94.5t-41.5 154.5q0 131 82 199t232 92.5t351 26.5v68q0 125 -62 171.5t-157 46.5q-101 0 -170 -51t-69 -161h-162q0 120 51.5 194t142 108t207.5 34q75 0 143.5 -14t123 -51t86.5 -103.5t32 -171.5v-651h-156l-7 148
q-67 -75 -155.5 -120.5t-206.5 -45.5zM456 110q100 0 180 47t134 119v198q-266 -3 -381.5 -50t-115.5 -154q0 -73 46.5 -116.5t136.5 -43.5zM557 1115q-123 0 -195 66.5t-87 185.5h101q7 -51 33.5 -82.5t65.5 -46t82 -14.5q44 0 84.5 15t68 46.5t34.5 81.5h99
q-14 -117 -87.5 -184.5t-198.5 -67.5zM255 1447q11 89 54 142t127 53q41 0 80 -14t76 -30q34 -15 60 -24t48 -9q33 0 54 20t26 62h98q-10 -86 -50.5 -137.5t-123.5 -51.5q-44 0 -83 13.5t-74 28.5t-61 24.5t-48 9.5q-35 0 -57 -21t-28 -66h-98z" />
    <glyph glyph-name="acircumflex" unicode="&#xe2;" horiz-adv-x="1088" 
d="M412 -18q-84 0 -153.5 32t-111 94.5t-41.5 154.5q0 131 82 199t232 92.5t351 26.5v68q0 125 -62 171.5t-157 46.5q-101 0 -170 -51t-69 -161h-162q0 120 51.5 194t142 108t207.5 34q75 0 143.5 -14t123 -51t86.5 -103.5t32 -171.5v-651h-156l-7 148
q-67 -75 -155.5 -120.5t-206.5 -45.5zM456 110q100 0 180 47t134 119v198q-266 -3 -381.5 -50t-115.5 -154q0 -73 46.5 -116.5t136.5 -43.5zM263 1110l214 269h167l214 -269h-139l-158 172l-160 -172h-138z" />
    <glyph glyph-name="uni1EA5" unicode="&#x1ea5;" horiz-adv-x="1088" 
d="M412 -18q-84 0 -153.5 32t-111 94.5t-41.5 154.5q0 131 82 199t232 92.5t351 26.5v68q0 125 -62 171.5t-157 46.5q-101 0 -170 -51t-69 -161h-162q0 120 51.5 194t142 108t207.5 34q75 0 143.5 -14t123 -51t86.5 -103.5t32 -171.5v-651h-156l-7 148
q-67 -75 -155.5 -120.5t-206.5 -45.5zM456 110q100 0 180 47t134 119v198q-266 -3 -381.5 -50t-115.5 -154q0 -73 46.5 -116.5t136.5 -43.5zM250 1107l214 269h167l214 -269h-138l-158 172l-160 -172h-139zM741 1275l163 269h183l-226 -269h-120z" />
    <glyph glyph-name="uni1EAD" unicode="&#x1ead;" horiz-adv-x="1088" 
d="M412 -18q-84 0 -153.5 32t-111 94.5t-41.5 154.5q0 131 82 199t232 92.5t351 26.5v68q0 125 -62 171.5t-157 46.5q-101 0 -170 -51t-69 -161h-162q0 120 51.5 194t142 108t207.5 34q75 0 143.5 -14t123 -51t86.5 -103.5t32 -171.5v-651h-156l-7 148
q-67 -75 -155.5 -120.5t-206.5 -45.5zM456 110q100 0 180 47t134 119v198q-266 -3 -381.5 -50t-115.5 -154q0 -73 46.5 -116.5t136.5 -43.5zM543 -291q-47 0 -76 27.5t-29 69.5t29 69.5t76 27.5t76 -27.5t29 -69.5t-29 -69.5t-76 -27.5zM263 1110l214 269h167l214 -269h-139
l-158 172l-160 -172h-138z" />
    <glyph glyph-name="uni1EA7" unicode="&#x1ea7;" horiz-adv-x="1088" 
d="M412 -18q-84 0 -153.5 32t-111 94.5t-41.5 154.5q0 131 82 199t232 92.5t351 26.5v68q0 125 -62 171.5t-157 46.5q-101 0 -170 -51t-69 -161h-162q0 120 51.5 194t142 108t207.5 34q75 0 143.5 -14t123 -51t86.5 -103.5t32 -171.5v-651h-156l-7 148
q-67 -75 -155.5 -120.5t-206.5 -45.5zM456 110q100 0 180 47t134 119v198q-266 -3 -381.5 -50t-115.5 -154q0 -73 46.5 -116.5t136.5 -43.5zM246 1107l214 269h167l214 -269h-138l-158 172l-160 -172h-139zM347 1275h-119l-227 269h185z" />
    <glyph glyph-name="uni1EA9" unicode="&#x1ea9;" horiz-adv-x="1088" 
d="M412 -18q-84 0 -153.5 32t-111 94.5t-41.5 154.5q0 131 82 199t232 92.5t351 26.5v68q0 125 -62 171.5t-157 46.5q-101 0 -170 -51t-69 -161h-162q0 120 51.5 194t142 108t207.5 34q75 0 143.5 -14t123 -51t86.5 -103.5t32 -171.5v-651h-156l-7 148
q-67 -75 -155.5 -120.5t-206.5 -45.5zM456 110q100 0 180 47t134 119v198q-266 -3 -381.5 -50t-115.5 -154q0 -73 46.5 -116.5t136.5 -43.5zM246 1107l214 269h167l214 -269h-138l-158 172l-160 -172h-139zM783 1271l-42 61q35 11 63.5 34.5t28.5 59.5q0 38 -26 50t-74 12
h-13v101h33q104 0 157 -35t53 -106q0 -75 -50 -119.5t-130 -57.5z" />
    <glyph glyph-name="uni1EAB" unicode="&#x1eab;" horiz-adv-x="1088" 
d="M412 -18q-84 0 -153.5 32t-111 94.5t-41.5 154.5q0 131 82 199t232 92.5t351 26.5v68q0 125 -62 171.5t-157 46.5q-101 0 -170 -51t-69 -161h-162q0 120 51.5 194t142 108t207.5 34q75 0 143.5 -14t123 -51t86.5 -103.5t32 -171.5v-651h-156l-7 148
q-67 -75 -155.5 -120.5t-206.5 -45.5zM456 110q100 0 180 47t134 119v198q-266 -3 -381.5 -50t-115.5 -154q0 -73 46.5 -116.5t136.5 -43.5zM246 1107l214 269h167l214 -269h-138l-158 172l-160 -172h-139zM235 1447q11 92 53.5 146t127.5 54q40 0 79.5 -14t76.5 -30
q33 -15 59 -24t49 -9q33 0 53.5 20t26.5 62h98q-11 -89 -51.5 -141.5t-123.5 -52.5q-43 0 -82.5 13.5t-74.5 28.5t-60.5 24.5t-47.5 9.5q-35 0 -57 -21t-28 -66h-98z" />
    <glyph glyph-name="adieresis" unicode="&#xe4;" horiz-adv-x="1088" 
d="M412 -18q-84 0 -153.5 32t-111 94.5t-41.5 154.5q0 131 82 199t232 92.5t351 26.5v68q0 125 -62 171.5t-157 46.5q-101 0 -170 -51t-69 -161h-162q0 120 51.5 194t142 108t207.5 34q75 0 143.5 -14t123 -51t86.5 -103.5t32 -171.5v-651h-156l-7 148
q-67 -75 -155.5 -120.5t-206.5 -45.5zM456 110q100 0 180 47t134 119v198q-266 -3 -381.5 -50t-115.5 -154q0 -73 46.5 -116.5t136.5 -43.5zM735 1164q-40 0 -66.5 25t-26.5 65q0 39 26.5 64.5t66.5 25.5t67 -25.5t27 -64.5q0 -40 -27 -65t-67 -25zM383 1164q-39 0 -66.5 25
t-27.5 65q0 39 27.5 64.5t66.5 25.5q40 0 67 -25.5t27 -64.5q0 -40 -27 -65t-67 -25z" />
    <glyph glyph-name="uni1EA1" unicode="&#x1ea1;" horiz-adv-x="1088" 
d="M412 -18q-84 0 -153.5 32t-111 94.5t-41.5 154.5q0 131 82 199t232 92.5t351 26.5v68q0 125 -62 171.5t-157 46.5q-101 0 -170 -51t-69 -161h-162q0 120 51.5 194t142 108t207.5 34q75 0 143.5 -14t123 -51t86.5 -103.5t32 -171.5v-651h-156l-7 148
q-67 -75 -155.5 -120.5t-206.5 -45.5zM456 110q100 0 180 47t134 119v198q-266 -3 -381.5 -50t-115.5 -154q0 -73 46.5 -116.5t136.5 -43.5zM543 -291q-47 0 -76 27.5t-29 69.5t29 69.5t76 27.5t76 -27.5t29 -69.5t-29 -69.5t-76 -27.5z" />
    <glyph glyph-name="agrave" unicode="&#xe0;" horiz-adv-x="1088" 
d="M412 -18q-84 0 -153.5 32t-111 94.5t-41.5 154.5q0 131 82 199t232 92.5t351 26.5v68q0 125 -62 171.5t-157 46.5q-101 0 -170 -51t-69 -161h-162q0 120 51.5 194t142 108t207.5 34q75 0 143.5 -14t123 -51t86.5 -103.5t32 -171.5v-651h-156l-7 148
q-67 -75 -155.5 -120.5t-206.5 -45.5zM456 110q100 0 180 47t134 119v198q-266 -3 -381.5 -50t-115.5 -154q0 -73 46.5 -116.5t136.5 -43.5zM523 1110l-267 269h192l204 -269h-129z" />
    <glyph glyph-name="uni1EA3" unicode="&#x1ea3;" horiz-adv-x="1088" 
d="M412 -18q-84 0 -153.5 32t-111 94.5t-41.5 154.5q0 131 82 199t232 92.5t351 26.5v68q0 125 -62 171.5t-157 46.5q-101 0 -170 -51t-69 -161h-162q0 120 51.5 194t142 108t207.5 34q75 0 143.5 -14t123 -51t86.5 -103.5t32 -171.5v-651h-156l-7 148
q-67 -75 -155.5 -120.5t-206.5 -45.5zM456 110q100 0 180 47t134 119v198q-266 -3 -381.5 -50t-115.5 -154q0 -73 46.5 -116.5t136.5 -43.5zM509 1133l-42 61q35 10 63.5 34t28.5 59q0 37 -25.5 49.5t-74.5 12.5h-13v102h33q118 0 177 -35.5t59 -110.5q0 -47 -26 -83.5
t-72 -58.5t-108 -30zM467 1194l112 -12v-94h-112v106z" />
    <glyph glyph-name="amacron" unicode="&#x101;" horiz-adv-x="1088" 
d="M412 -18q-84 0 -153.5 32t-111 94.5t-41.5 154.5q0 131 82 199t232 92.5t351 26.5v68q0 125 -62 171.5t-157 46.5q-101 0 -170 -51t-69 -161h-162q0 120 51.5 194t142 108t207.5 34q75 0 143.5 -14t123 -51t86.5 -103.5t32 -171.5v-651h-156l-7 148
q-67 -75 -155.5 -120.5t-206.5 -45.5zM456 110q100 0 180 47t134 119v198q-266 -3 -381.5 -50t-115.5 -154q0 -73 46.5 -116.5t136.5 -43.5zM287 1178v123h545v-123h-545z" />
    <glyph glyph-name="aogonek" unicode="&#x105;" horiz-adv-x="1088" 
d="M412 -18q-84 0 -153.5 32t-111 94.5t-41.5 154.5q0 131 82 199t232 92.5t351 26.5v68q0 125 -62 171.5t-157 46.5q-101 0 -170 -51t-69 -161h-162q0 120 51.5 194t142 108t207.5 34q75 0 143.5 -14t123 -51t86.5 -103.5t32 -171.5v-651h-156l-7 148
q-67 -75 -155.5 -120.5t-206.5 -45.5zM456 110q100 0 180 47t134 119v198q-266 -3 -381.5 -50t-115.5 -154q0 -73 46.5 -116.5t136.5 -43.5zM775 -375q-76 0 -129.5 43t-53.5 119q0 51 31.5 101t85 89.5t118.5 56.5l63 -18q-88 -57 -122 -109.5t-34 -94.5q0 -35 20.5 -53.5
t51.5 -18.5q34 0 63.5 8.5t61.5 22.5v-111q-29 -16 -63.5 -25.5t-92.5 -9.5z" />
    <glyph glyph-name="aring" unicode="&#xe5;" horiz-adv-x="1088" 
d="M412 -18q-84 0 -153.5 32t-111 94.5t-41.5 154.5q0 131 82 199t232 92.5t351 26.5v68q0 125 -62 171.5t-157 46.5q-101 0 -170 -51t-69 -161h-162q0 120 51.5 194t142 108t207.5 34q75 0 143.5 -14t123 -51t86.5 -103.5t32 -171.5v-651h-156l-7 148
q-67 -75 -155.5 -120.5t-206.5 -45.5zM456 110q100 0 180 47t134 119v198q-266 -3 -381.5 -50t-115.5 -154q0 -73 46.5 -116.5t136.5 -43.5zM559 1079q-92 0 -150 55.5t-58 147.5q0 90 58 145.5t150 55.5t150 -55.5t58 -145.5q0 -92 -58 -147.5t-150 -55.5zM559 1174
q47 0 76 30t29 78q0 47 -29 77.5t-76 30.5q-46 0 -75 -30.5t-29 -77.5q0 -48 29 -78t75 -30z" />
    <glyph glyph-name="aringacute" unicode="&#x1fb;" horiz-adv-x="1088" 
d="M412 -18q-84 0 -153.5 32t-111 94.5t-41.5 154.5q0 131 82 199t232 92.5t351 26.5v68q0 125 -62 171.5t-157 46.5q-101 0 -170 -51t-69 -161h-162q0 120 51.5 194t142 108t207.5 34q75 0 143.5 -14t123 -51t86.5 -103.5t32 -171.5v-651h-156l-7 148
q-67 -75 -155.5 -120.5t-206.5 -45.5zM456 110q100 0 180 47t134 119v198q-266 -3 -381.5 -50t-115.5 -154q0 -73 46.5 -116.5t136.5 -43.5zM559 1079q-92 0 -150 55.5t-58 147.5q0 90 58 145.5t150 55.5t150 -55.5t58 -145.5q0 -92 -58 -147.5t-150 -55.5zM559 1174
q47 0 76 30t29 78q0 47 -29 77.5t-76 30.5q-46 0 -75 -30.5t-29 -77.5q0 -48 29 -78t75 -30zM455 1503l203 269h194l-268 -269h-129z" />
    <glyph glyph-name="atilde" unicode="&#xe3;" horiz-adv-x="1088" 
d="M412 -18q-84 0 -153.5 32t-111 94.5t-41.5 154.5q0 131 82 199t232 92.5t351 26.5v68q0 125 -62 171.5t-157 46.5q-101 0 -170 -51t-69 -161h-162q0 120 51.5 194t142 108t207.5 34q75 0 143.5 -14t123 -51t86.5 -103.5t32 -171.5v-651h-156l-7 148
q-67 -75 -155.5 -120.5t-206.5 -45.5zM456 110q100 0 180 47t134 119v198q-266 -3 -381.5 -50t-115.5 -154q0 -73 46.5 -116.5t136.5 -43.5zM268 1138q10 92 47.5 146t112.5 54q41 0 80.5 -14t76.5 -31q33 -14 59.5 -23t48.5 -9q24 0 40 20t20 62h98q-10 -89 -45.5 -141.5
t-109.5 -52.5q-44 0 -83 13.5t-74 28.5q-34 15 -60 24.5t-49 9.5q-27 0 -43 -21t-21 -66h-98z" />
    <glyph glyph-name="ae" unicode="&#xe6;" horiz-adv-x="1730" 
d="M1216 -18q-158 0 -259.5 66.5t-150.5 181t-49 257.5q0 149 47.5 262.5t145 177.5t248.5 64q198 0 311 -120t113 -345q0 -15 -1 -35.5t-3 -29.5h-694q1 -95 30 -174.5t93.5 -127.5t168.5 -48q112 0 175.5 52.5t66.5 151.5h165q-4 -103 -54 -177.5t-139.5 -115
t-213.5 -40.5zM434 -18q-149 0 -238.5 73.5t-89.5 206.5q0 131 80.5 198.5t227 92.5t343.5 27v77q0 80 -28 125.5t-74.5 64.5t-101.5 19q-101 0 -170.5 -50t-69.5 -159h-162q0 175 110.5 254.5t290.5 79.5q76 0 147 -20.5t121.5 -70t66.5 -138.5l-75 -288
q-198 -1 -316 -21.5t-170.5 -63.5t-52.5 -113q0 -75 46.5 -120.5t138.5 -45.5q68 0 129.5 24.5t115 74t97.5 124.5l69 -69q-32 -74 -93.5 -138.5t-147.5 -104t-194 -39.5zM925 583h531q-3 136 -70.5 208t-187.5 72q-124 0 -193 -72t-80 -208z" />
    <glyph glyph-name="aeacute" unicode="&#x1fd;" horiz-adv-x="1730" 
d="M1216 -18q-158 0 -259.5 66.5t-150.5 181t-49 257.5q0 149 47.5 262.5t145 177.5t248.5 64q198 0 311 -120t113 -345q0 -15 -1 -35.5t-3 -29.5h-694q1 -95 30 -174.5t93.5 -127.5t168.5 -48q112 0 175.5 52.5t66.5 151.5h165q-4 -103 -54 -177.5t-139.5 -115
t-213.5 -40.5zM434 -18q-149 0 -238.5 73.5t-89.5 206.5q0 131 80.5 198.5t227 92.5t343.5 27v77q0 80 -28 125.5t-74.5 64.5t-101.5 19q-101 0 -170.5 -50t-69.5 -159h-162q0 175 110.5 254.5t290.5 79.5q76 0 147 -20.5t121.5 -70t66.5 -138.5l-75 -288
q-198 -1 -316 -21.5t-170.5 -63.5t-52.5 -113q0 -75 46.5 -120.5t138.5 -45.5q68 0 129.5 24.5t115 74t97.5 124.5l69 -69q-32 -74 -93.5 -138.5t-147.5 -104t-194 -39.5zM925 583h531q-3 136 -70.5 208t-187.5 72q-124 0 -193 -72t-80 -208zM771 1110l203 269h194
l-268 -269h-129z" />
    <glyph glyph-name="b" unicode="b" horiz-adv-x="1149" 
d="M634 -18q-108 0 -184 41.5t-124 114.5l-9 -138h-156v1346h167v-528q51 77 133.5 125t193.5 48q119 0 206 -56.5t134.5 -168.5t47.5 -279q0 -166 -50.5 -278.5t-142.5 -169.5t-216 -57zM603 119q132 0 200 95.5t68 270.5q0 180 -63.5 276t-187.5 96q-105 0 -177.5 -56
t-114.5 -136v-375q39 -74 107 -122.5t168 -48.5z" />
    <glyph glyph-name="uni0253" unicode="&#x253;" horiz-adv-x="1149" 
d="M634 -18q-108 0 -184 41.5t-124 114.5l-9 -138h-156v1049l167 10v-241q51 77 133.5 125t193.5 48q119 0 206 -56.5t134.5 -168.5t47.5 -279q0 -166 -50.5 -278.5t-142.5 -169.5t-216 -57zM603 119q132 0 200 95.5t68 270.5q0 180 -63.5 276t-187.5 96q-105 0 -177.5 -56
t-114.5 -136v-375q39 -74 107 -122.5t168 -48.5zM161 1049q0 152 65.5 224.5t213.5 72.5h77v-137h-44q-71 0 -108 -34.5t-37 -115.5z" />
    <glyph glyph-name="c" unicode="c" horiz-adv-x="1075" 
d="M557 -17q-132 0 -234 55.5t-159.5 167t-57.5 279.5t56.5 280.5t158 169t236.5 56.5q113 0 203.5 -37t144.5 -111.5t57 -188.5h-165q-6 94 -68 148t-169 54q-142 0 -212 -97.5t-70 -273.5q0 -117 31 -198.5t94 -125t157 -43.5q107 0 174 55.5t70 162.5h165
q-3 -118 -57.5 -196.5t-147 -117.5t-207.5 -39z" />
    <glyph glyph-name="cacute" unicode="&#x107;" horiz-adv-x="1075" 
d="M557 -17q-132 0 -234 55.5t-159.5 167t-57.5 279.5t56.5 280.5t158 169t236.5 56.5q113 0 203.5 -37t144.5 -111.5t57 -188.5h-165q-6 94 -68 148t-169 54q-142 0 -212 -97.5t-70 -273.5q0 -117 31 -198.5t94 -125t157 -43.5q107 0 174 55.5t70 162.5h165
q-3 -118 -57.5 -196.5t-147 -117.5t-207.5 -39zM448 1110l203 269h194l-268 -269h-129z" />
    <glyph glyph-name="ccaron" unicode="&#x10d;" horiz-adv-x="1075" 
d="M557 -17q-132 0 -234 55.5t-159.5 167t-57.5 279.5t56.5 280.5t158 169t236.5 56.5q113 0 203.5 -37t144.5 -111.5t57 -188.5h-165q-6 94 -68 148t-169 54q-142 0 -212 -97.5t-70 -273.5q0 -117 31 -198.5t94 -125t157 -43.5q107 0 174 55.5t70 162.5h165
q-3 -118 -57.5 -196.5t-147 -117.5t-207.5 -39zM458 1110l-214 269h138l160 -172l158 172h139l-214 -269h-167z" />
    <glyph glyph-name="ccedilla" unicode="&#xe7;" horiz-adv-x="1075" 
d="M557 -17q-132 0 -234 55.5t-159.5 167t-57.5 279.5t56.5 280.5t158 169t236.5 56.5q113 0 203.5 -37t144.5 -111.5t57 -188.5h-165q-6 94 -68 148t-169 54q-142 0 -212 -97.5t-70 -273.5q0 -117 31 -198.5t94 -125t157 -43.5q107 0 174 55.5t70 162.5h165
q-3 -118 -57.5 -196.5t-147 -117.5t-207.5 -39zM545 -382q-57 0 -100 9.5t-81 24.5l27 93q26 -12 66.5 -20.5t81.5 -8.5q36 0 61 17t25 48q0 35 -32 52.5t-111 26.5l-44 5l132 177l81 -37l-68 -93l-30 23q94 -4 145.5 -42t51.5 -109q0 -55 -27 -92t-73 -55.5t-105 -18.5z
" />
    <glyph glyph-name="ccircumflex" unicode="&#x109;" horiz-adv-x="1075" 
d="M557 -17q-132 0 -234 55.5t-159.5 167t-57.5 279.5t56.5 280.5t158 169t236.5 56.5q113 0 203.5 -37t144.5 -111.5t57 -188.5h-165q-6 94 -68 148t-169 54q-142 0 -212 -97.5t-70 -273.5q0 -117 31 -198.5t94 -125t157 -43.5q107 0 174 55.5t70 162.5h165
q-3 -118 -57.5 -196.5t-147 -117.5t-207.5 -39zM246 1110l214 269h167l214 -269h-139l-158 172l-160 -172h-138z" />
    <glyph glyph-name="cdotaccent" unicode="&#x10b;" horiz-adv-x="1075" 
d="M557 -17q-132 0 -234 55.5t-159.5 167t-57.5 279.5t56.5 280.5t158 169t236.5 56.5q113 0 203.5 -37t144.5 -111.5t57 -188.5h-165q-6 94 -68 148t-169 54q-142 0 -212 -97.5t-70 -273.5q0 -117 31 -198.5t94 -125t157 -43.5q107 0 174 55.5t70 162.5h165
q-3 -118 -57.5 -196.5t-147 -117.5t-207.5 -39zM542 1157q-47 0 -76 27.5t-29 69.5t29 69.5t76 27.5t76 -27.5t29 -69.5t-29 -69.5t-76 -27.5z" />
    <glyph glyph-name="d" unicode="d" horiz-adv-x="1148" 
d="M494 -18q-119 0 -206 57t-134.5 170.5t-47.5 280.5q0 166 50.5 277t142.5 167.5t217 56.5q104 0 181 -45.5t124 -123.5v524h167v-1346h-158l-9 142q-52 -71 -134 -115.5t-193 -44.5zM528 119q107 0 178 50.5t115 121.5v375q-41 82 -107.5 135.5t-167.5 53.5
q-133 0 -200.5 -95t-67.5 -270q0 -181 63.5 -276t186.5 -95z" />
    <glyph glyph-name="eth" unicode="&#xf0;" horiz-adv-x="1130" 
d="M562 -16q-144 0 -246.5 59t-156 169.5t-53.5 261.5q0 153 53 263.5t152.5 171t236.5 60.5q132 0 203.5 -58.5t106.5 -160.5h-24q-23 55 -49.5 100.5t-63.5 89t-90.5 94t-131.5 115.5l-234 197h217l148 -124q142 -118 228.5 -234t126 -236.5t39.5 -249.5
q0 -164 -54.5 -280t-157.5 -177t-250 -61zM560 116q108 0 171.5 47.5t92 128.5t28.5 182q0 102 -28.5 183t-92 128.5t-171.5 47.5q-104 0 -165.5 -47.5t-89 -128.5t-27.5 -183q0 -101 27.5 -182t89 -128.5t165.5 -47.5zM251 1017v126l295 107v-4l295 108v-124l-295 -107v3z
" />
    <glyph glyph-name="dcaron" unicode="&#x10f;" horiz-adv-x="1148" 
d="M494 -18q-119 0 -206 57t-134.5 170.5t-47.5 280.5q0 166 50.5 277t142.5 167.5t217 56.5q104 0 181 -45.5t124 -123.5v524h167v-1346h-158l-9 142q-52 -71 -134 -115.5t-193 -44.5zM528 119q107 0 178 50.5t115 121.5v375q-41 82 -107.5 135.5t-167.5 53.5
q-133 0 -200.5 -95t-67.5 -270q0 -181 63.5 -276t186.5 -95zM1059 1028l66 318h166l-120 -318h-112z" />
    <glyph glyph-name="dcroat" unicode="&#x111;" horiz-adv-x="1148" 
d="M593 1117v108h522v-108h-522zM494 -18q-119 0 -206 57t-134.5 170.5t-47.5 280.5q0 166 50.5 277t142.5 167.5t217 56.5q104 0 181 -45.5t124 -123.5v524h167v-1346h-158l-9 142q-52 -71 -134 -115.5t-193 -44.5zM528 119q107 0 178 50.5t115 121.5v375
q-41 82 -107.5 135.5t-167.5 53.5q-133 0 -200.5 -95t-67.5 -270q0 -181 63.5 -276t186.5 -95z" />
    <glyph glyph-name="uni0257" unicode="&#x257;" horiz-adv-x="1176" 
d="M494 -18q-119 0 -206 57t-134.5 170.5t-47.5 280.5q0 166 50.5 277t142.5 167.5t217 56.5q104 0 181 -45.5t124 -123.5l1 222l167 10l-1 -1054h-158l-9 142q-52 -71 -134 -115.5t-193 -44.5zM528 119q107 0 178 50.5t115 121.5v375q-41 82 -107.5 135.5t-167.5 53.5
q-133 0 -200.5 -95t-67.5 -270q0 -181 63.5 -276t186.5 -95zM822 1044q0 148 64.5 225t211.5 77h78v-137h-44q-73 0 -109 -37t-34 -118z" />
    <glyph glyph-name="uni0256" unicode="&#x256;" horiz-adv-x="1148" 
d="M494 -18q-119 0 -206 57t-134.5 170.5t-47.5 280.5q0 166 50.5 277t142.5 167.5t217 56.5q104 0 181 -45.5t124 -123.5v524h167v-1343l-166 9l-1 130q-52 -71 -134 -115.5t-193 -44.5zM1095 -288q-146 0 -209.5 77t-63.5 223l166 -9q-3 -81 33.5 -118t107.5 -37h44v-136
h-78zM528 119q107 0 178 50.5t115 121.5v375q-41 82 -107.5 135.5t-167.5 53.5q-133 0 -200.5 -95t-67.5 -270q0 -181 63.5 -276t186.5 -95z" />
    <glyph glyph-name="e" unicode="e" horiz-adv-x="1079" 
d="M566 -18q-159 0 -260.5 66.5t-150.5 181t-49 257.5q0 149 47.5 262.5t145 177.5t247.5 64q199 0 312 -120t113 -345q0 -15 -1 -35.5t-3 -29.5h-694q1 -95 30.5 -174.5t93.5 -127.5t169 -48q112 0 175 52.5t66 151.5h165q-3 -103 -53 -177.5t-140 -115t-213 -40.5z
M274 583h532q-3 136 -71 208t-189 72q-122 0 -191.5 -71.5t-80.5 -208.5z" />
    <glyph glyph-name="eacute" unicode="&#xe9;" horiz-adv-x="1079" 
d="M566 -18q-159 0 -260.5 66.5t-150.5 181t-49 257.5q0 149 47.5 262.5t145 177.5t247.5 64q199 0 312 -120t113 -345q0 -15 -1 -35.5t-3 -29.5h-694q1 -95 30.5 -174.5t93.5 -127.5t169 -48q112 0 175 52.5t66 151.5h165q-3 -103 -53 -177.5t-140 -115t-213 -40.5z
M274 583h532q-3 136 -71 208t-189 72q-122 0 -191.5 -71.5t-80.5 -208.5zM456 1110l203 269h194l-268 -269h-129z" />
    <glyph glyph-name="ebreve" unicode="&#x115;" horiz-adv-x="1079" 
d="M566 -18q-159 0 -260.5 66.5t-150.5 181t-49 257.5q0 149 47.5 262.5t145 177.5t247.5 64q199 0 312 -120t113 -345q0 -15 -1 -35.5t-3 -29.5h-694q1 -95 30.5 -174.5t93.5 -127.5t169 -48q112 0 175 52.5t66 151.5h165q-3 -103 -53 -177.5t-140 -115t-213 -40.5z
M274 583h532q-3 136 -71 208t-189 72q-122 0 -191.5 -71.5t-80.5 -208.5zM548 1118q-114 0 -183 66.5t-83 185.5h103q10 -77 57.5 -110t105.5 -33q60 0 110 34t59 109h97q-12 -117 -81.5 -184.5t-184.5 -67.5z" />
    <glyph glyph-name="ecaron" unicode="&#x11b;" horiz-adv-x="1079" 
d="M566 -18q-159 0 -260.5 66.5t-150.5 181t-49 257.5q0 149 47.5 262.5t145 177.5t247.5 64q199 0 312 -120t113 -345q0 -15 -1 -35.5t-3 -29.5h-694q1 -95 30.5 -174.5t93.5 -127.5t169 -48q112 0 175 52.5t66 151.5h165q-3 -103 -53 -177.5t-140 -115t-213 -40.5z
M274 583h532q-3 136 -71 208t-189 72q-122 0 -191.5 -71.5t-80.5 -208.5zM466 1110l-214 269h138l160 -172l158 172h139l-214 -269h-167z" />
    <glyph glyph-name="ecircumflex" unicode="&#xea;" horiz-adv-x="1079" 
d="M566 -18q-159 0 -260.5 66.5t-150.5 181t-49 257.5q0 149 47.5 262.5t145 177.5t247.5 64q199 0 312 -120t113 -345q0 -15 -1 -35.5t-3 -29.5h-694q1 -95 30.5 -174.5t93.5 -127.5t169 -48q112 0 175 52.5t66 151.5h165q-3 -103 -53 -177.5t-140 -115t-213 -40.5z
M274 583h532q-3 136 -71 208t-189 72q-122 0 -191.5 -71.5t-80.5 -208.5zM254 1110l214 269h167l214 -269h-139l-158 172l-160 -172h-138z" />
    <glyph glyph-name="uni1EBF" unicode="&#x1ebf;" horiz-adv-x="1079" 
d="M566 -18q-159 0 -260.5 66.5t-150.5 181t-49 257.5q0 149 47.5 262.5t145 177.5t247.5 64q199 0 312 -120t113 -345q0 -15 -1 -35.5t-3 -29.5h-694q1 -95 30.5 -174.5t93.5 -127.5t169 -48q112 0 175 52.5t66 151.5h165q-3 -103 -53 -177.5t-140 -115t-213 -40.5z
M274 583h532q-3 136 -71 208t-189 72q-122 0 -191.5 -71.5t-80.5 -208.5zM241 1107l214 269h167l214 -269h-138l-158 172l-160 -172h-139zM732 1275l163 269h183l-226 -269h-120z" />
    <glyph glyph-name="uni1EC7" unicode="&#x1ec7;" horiz-adv-x="1079" 
d="M566 -18q-159 0 -260.5 66.5t-150.5 181t-49 257.5q0 149 47.5 262.5t145 177.5t247.5 64q199 0 312 -120t113 -345q0 -15 -1 -35.5t-3 -29.5h-694q1 -95 30.5 -174.5t93.5 -127.5t169 -48q112 0 175 52.5t66 151.5h165q-3 -103 -53 -177.5t-140 -115t-213 -40.5z
M274 583h532q-3 136 -71 208t-189 72q-122 0 -191.5 -71.5t-80.5 -208.5zM556 -291q-47 0 -76 27.5t-29 69.5t29 69.5t76 27.5t76 -27.5t29 -69.5t-29 -69.5t-76 -27.5zM254 1110l214 269h167l214 -269h-139l-158 172l-160 -172h-138z" />
    <glyph glyph-name="uni1EC1" unicode="&#x1ec1;" horiz-adv-x="1079" 
d="M566 -18q-159 0 -260.5 66.5t-150.5 181t-49 257.5q0 149 47.5 262.5t145 177.5t247.5 64q199 0 312 -120t113 -345q0 -15 -1 -35.5t-3 -29.5h-694q1 -95 30.5 -174.5t93.5 -127.5t169 -48q112 0 175 52.5t66 151.5h165q-3 -103 -53 -177.5t-140 -115t-213 -40.5z
M274 583h532q-3 136 -71 208t-189 72q-122 0 -191.5 -71.5t-80.5 -208.5zM237 1107l214 269h167l214 -269h-138l-158 172l-160 -172h-139zM338 1275h-119l-227 269h185z" />
    <glyph glyph-name="uni1EC3" unicode="&#x1ec3;" horiz-adv-x="1079" 
d="M566 -18q-159 0 -260.5 66.5t-150.5 181t-49 257.5q0 149 47.5 262.5t145 177.5t247.5 64q199 0 312 -120t113 -345q0 -15 -1 -35.5t-3 -29.5h-694q1 -95 30.5 -174.5t93.5 -127.5t169 -48q112 0 175 52.5t66 151.5h165q-3 -103 -53 -177.5t-140 -115t-213 -40.5z
M274 583h532q-3 136 -71 208t-189 72q-122 0 -191.5 -71.5t-80.5 -208.5zM237 1107l214 269h167l214 -269h-138l-158 172l-160 -172h-139zM774 1271l-42 61q35 11 63.5 34.5t28.5 59.5q0 38 -26 50t-74 12h-13v101h33q104 0 157 -35t53 -106q0 -75 -50 -119.5t-130 -57.5z
" />
    <glyph glyph-name="uni1EC5" unicode="&#x1ec5;" horiz-adv-x="1079" 
d="M566 -18q-159 0 -260.5 66.5t-150.5 181t-49 257.5q0 149 47.5 262.5t145 177.5t247.5 64q199 0 312 -120t113 -345q0 -15 -1 -35.5t-3 -29.5h-694q1 -95 30.5 -174.5t93.5 -127.5t169 -48q112 0 175 52.5t66 151.5h165q-3 -103 -53 -177.5t-140 -115t-213 -40.5z
M274 583h532q-3 136 -71 208t-189 72q-122 0 -191.5 -71.5t-80.5 -208.5zM237 1107l214 269h167l214 -269h-138l-158 172l-160 -172h-139zM226 1447q11 92 53.5 146t127.5 54q40 0 79.5 -14t76.5 -30q33 -15 59 -24t49 -9q33 0 53.5 20t26.5 62h98q-11 -89 -51.5 -141.5
t-123.5 -52.5q-43 0 -82.5 13.5t-74.5 28.5t-60.5 24.5t-47.5 9.5q-35 0 -57 -21t-28 -66h-98z" />
    <glyph glyph-name="edieresis" unicode="&#xeb;" horiz-adv-x="1079" 
d="M566 -18q-159 0 -260.5 66.5t-150.5 181t-49 257.5q0 149 47.5 262.5t145 177.5t247.5 64q199 0 312 -120t113 -345q0 -15 -1 -35.5t-3 -29.5h-694q1 -95 30.5 -174.5t93.5 -127.5t169 -48q112 0 175 52.5t66 151.5h165q-3 -103 -53 -177.5t-140 -115t-213 -40.5z
M274 583h532q-3 136 -71 208t-189 72q-122 0 -191.5 -71.5t-80.5 -208.5zM726 1164q-40 0 -66.5 25t-26.5 65q0 39 26.5 64.5t66.5 25.5t67 -25.5t27 -64.5q0 -40 -27 -65t-67 -25zM374 1164q-39 0 -66.5 25t-27.5 65q0 39 27.5 64.5t66.5 25.5q40 0 67 -25.5t27 -64.5
q0 -40 -27 -65t-67 -25z" />
    <glyph glyph-name="edotaccent" unicode="&#x117;" horiz-adv-x="1079" 
d="M566 -18q-159 0 -260.5 66.5t-150.5 181t-49 257.5q0 149 47.5 262.5t145 177.5t247.5 64q199 0 312 -120t113 -345q0 -15 -1 -35.5t-3 -29.5h-694q1 -95 30.5 -174.5t93.5 -127.5t169 -48q112 0 175 52.5t66 151.5h165q-3 -103 -53 -177.5t-140 -115t-213 -40.5z
M274 583h532q-3 136 -71 208t-189 72q-122 0 -191.5 -71.5t-80.5 -208.5zM550 1157q-47 0 -76 27.5t-29 69.5t29 69.5t76 27.5t76 -27.5t29 -69.5t-29 -69.5t-76 -27.5z" />
    <glyph glyph-name="uni1EB9" unicode="&#x1eb9;" horiz-adv-x="1079" 
d="M566 -18q-159 0 -260.5 66.5t-150.5 181t-49 257.5q0 149 47.5 262.5t145 177.5t247.5 64q199 0 312 -120t113 -345q0 -15 -1 -35.5t-3 -29.5h-694q1 -95 30.5 -174.5t93.5 -127.5t169 -48q112 0 175 52.5t66 151.5h165q-3 -103 -53 -177.5t-140 -115t-213 -40.5z
M274 583h532q-3 136 -71 208t-189 72q-122 0 -191.5 -71.5t-80.5 -208.5zM556 -291q-47 0 -76 27.5t-29 69.5t29 69.5t76 27.5t76 -27.5t29 -69.5t-29 -69.5t-76 -27.5z" />
    <glyph glyph-name="egrave" unicode="&#xe8;" horiz-adv-x="1079" 
d="M566 -18q-159 0 -260.5 66.5t-150.5 181t-49 257.5q0 149 47.5 262.5t145 177.5t247.5 64q199 0 312 -120t113 -345q0 -15 -1 -35.5t-3 -29.5h-694q1 -95 30.5 -174.5t93.5 -127.5t169 -48q112 0 175 52.5t66 151.5h165q-3 -103 -53 -177.5t-140 -115t-213 -40.5z
M274 583h532q-3 136 -71 208t-189 72q-122 0 -191.5 -71.5t-80.5 -208.5zM514 1110l-267 269h192l204 -269h-129z" />
    <glyph glyph-name="uni1EBB" unicode="&#x1ebb;" horiz-adv-x="1079" 
d="M566 -18q-159 0 -260.5 66.5t-150.5 181t-49 257.5q0 149 47.5 262.5t145 177.5t247.5 64q199 0 312 -120t113 -345q0 -15 -1 -35.5t-3 -29.5h-694q1 -95 30.5 -174.5t93.5 -127.5t169 -48q112 0 175 52.5t66 151.5h165q-3 -103 -53 -177.5t-140 -115t-213 -40.5z
M274 583h532q-3 136 -71 208t-189 72q-122 0 -191.5 -71.5t-80.5 -208.5zM500 1133l-42 61q35 10 63.5 34t28.5 59q0 37 -25.5 49.5t-74.5 12.5h-13v102h33q118 0 177 -35.5t59 -110.5q0 -47 -26 -83.5t-72 -58.5t-108 -30zM458 1194l112 -12v-94h-112v106z" />
    <glyph glyph-name="emacron" unicode="&#x113;" horiz-adv-x="1079" 
d="M566 -18q-159 0 -260.5 66.5t-150.5 181t-49 257.5q0 149 47.5 262.5t145 177.5t247.5 64q199 0 312 -120t113 -345q0 -15 -1 -35.5t-3 -29.5h-694q1 -95 30.5 -174.5t93.5 -127.5t169 -48q112 0 175 52.5t66 151.5h165q-3 -103 -53 -177.5t-140 -115t-213 -40.5z
M274 583h532q-3 136 -71 208t-189 72q-122 0 -191.5 -71.5t-80.5 -208.5zM278 1178v123h545v-123h-545z" />
    <glyph glyph-name="eogonek" unicode="&#x119;" horiz-adv-x="1079" 
d="M566 -18q-159 0 -260.5 66.5t-150.5 181t-49 257.5q0 149 47.5 262.5t145 177.5t247.5 64q199 0 312 -120t113 -345q0 -15 -1 -35.5t-3 -29.5h-694q1 -95 30.5 -174.5t93.5 -127.5t169 -48q112 0 175 52.5t66 151.5h165q-3 -103 -53 -177.5t-140 -115t-213 -40.5z
M274 583h532q-3 136 -71 208t-189 72q-122 0 -191.5 -71.5t-80.5 -208.5zM641 -375q-76 0 -129.5 43t-53.5 119q0 51 31.5 101t85 89.5t118.5 56.5l63 -18q-88 -57 -122 -109.5t-34 -94.5q0 -35 20.5 -53.5t51.5 -18.5q34 0 63.5 8.5t61.5 22.5v-111q-29 -16 -63.5 -25.5
t-92.5 -9.5z" />
    <glyph glyph-name="uni025B" unicode="&#x25b;" horiz-adv-x="1015" 
d="M500 -16q-189 0 -297 71.5t-108 209.5q0 107 65.5 164t189.5 83q-116 25 -164 88.5t-48 135.5q0 60 33.5 118.5t113 96.5t215.5 38q177 0 279.5 -70t108.5 -207h-160q0 65 -62.5 107.5t-165.5 42.5q-109 0 -156.5 -39.5t-47.5 -97.5q0 -73 66.5 -111.5t161.5 -38.5h113
v-129h-86q-154 0 -224 -42t-70 -125q0 -87 68 -126.5t177 -39.5q132 0 203.5 45t75.5 144h160q-7 -103 -57 -174t-145 -107.5t-239 -36.5z" />
    <glyph glyph-name="uni0283" unicode="&#x283;" horiz-adv-x="522" 
d="M-2 -319v135h44q89 0 112 48t23 135v1031q0 100 23.5 170.5t86.5 107.5t182 37h55v-135h-45q-88 0 -111 -48.5t-23 -139.5v-1023q0 -101 -23.5 -171.5t-86 -108.5t-182.5 -38h-55z" />
    <glyph glyph-name="uni1EBD" unicode="&#x1ebd;" horiz-adv-x="1079" 
d="M566 -18q-159 0 -260.5 66.5t-150.5 181t-49 257.5q0 149 47.5 262.5t145 177.5t247.5 64q199 0 312 -120t113 -345q0 -15 -1 -35.5t-3 -29.5h-694q1 -95 30.5 -174.5t93.5 -127.5t169 -48q112 0 175 52.5t66 151.5h165q-3 -103 -53 -177.5t-140 -115t-213 -40.5z
M274 583h532q-3 136 -71 208t-189 72q-122 0 -191.5 -71.5t-80.5 -208.5zM259 1138q10 92 47.5 146t112.5 54q41 0 80.5 -14t76.5 -31q33 -14 59.5 -23t48.5 -9q24 0 40 20t20 62h98q-10 -89 -45.5 -141.5t-109.5 -52.5q-44 0 -83 13.5t-74 28.5q-34 15 -60 24.5t-49 9.5
q-27 0 -43 -21t-21 -66h-98z" />
    <glyph glyph-name="uni01DD" unicode="&#x1dd;" horiz-adv-x="1079" 
d="M513 992q159 0 260.5 -66.5t150.5 -181t49 -257.5q0 -149 -47.5 -262.5t-145 -177.5t-247.5 -64q-199 0 -312 120.5t-113 344.5q0 15 1.5 36t2.5 29h694q-1 96 -30.5 175t-93 127t-169.5 48q-111 0 -174.5 -52.5t-66.5 -151.5h-165q3 103 53 177.5t140 115t213 40.5z
M805 391h-532q3 -135 71 -207.5t189 -72.5q122 0 191.5 71.5t80.5 208.5z" />
    <glyph glyph-name="uni0259" unicode="&#x259;" horiz-adv-x="1079" 
d="M513 992q159 0 260.5 -66.5t150.5 -181t49 -257.5q0 -149 -47.5 -262.5t-145 -177.5t-247.5 -64q-199 0 -312 120.5t-113 344.5q0 15 1.5 36t2.5 29h694q-1 96 -30.5 175t-93 127t-169.5 48q-111 0 -174.5 -52.5t-66.5 -151.5h-165q3 103 53 177.5t140 115t213 40.5z
M805 391h-532q3 -135 71 -207.5t189 -72.5q122 0 191.5 71.5t80.5 208.5z" />
    <glyph glyph-name="uni0292" unicode="&#x292;" horiz-adv-x="991" 
d="M480 -379q-206 0 -323.5 95t-117.5 275h156q0 -111 76 -173.5t207 -62.5q135 0 211 68t76 214q0 96 -42.5 159t-123 94.5t-193.5 31.5h-124v125l387 392h-552v135h752v-119l-410 -414q147 0 253 -47.5t163.5 -137.5t57.5 -219q0 -200 -124 -308t-329 -108z" />
    <glyph glyph-name="f" unicode="f" horiz-adv-x="617" 
d="M195 0v839h-163v135h163v56q0 74 12.5 133t44 99.5t88 62t146.5 21.5h101v-131h-90q-89 0 -112.5 -48t-23.5 -139v-54h227v-135h-227v-839h-166z" />
    <glyph glyph-name="g" unicode="g" horiz-adv-x="992" 
d="M500 -377q-158 0 -252.5 36t-136.5 96t-42 130q0 85 72.5 151t223.5 93l32 55h123q240 0 343 -63.5t103 -196.5q0 -132 -117.5 -216.5t-348.5 -84.5zM496 -256q170 0 239.5 48t69.5 119q0 42 -23.5 72.5t-87 47.5t-180.5 17h-148q-68 -17 -105 -58t-37 -95
q0 -60 63 -105.5t209 -45.5zM363 57q-95 10 -149.5 39.5t-77.5 66t-23 70.5q0 49 39.5 92.5t129.5 71.5l83 -52q-53 -15 -84 -38.5t-31 -52.5q0 -20 18.5 -35.5t63 -25t123.5 -9.5zM488 315q-120 0 -203.5 46.5t-126.5 122t-43 163.5q0 93 43.5 169t128 121t206.5 45
q125 0 208 -45t124 -121t41 -169q0 -90 -41.5 -165.5t-125.5 -121t-211 -45.5zM487 429q96 0 158.5 55t62.5 163q0 113 -59 167.5t-156 54.5q-95 0 -157.5 -56t-62.5 -165q0 -110 64.5 -164.5t149.5 -54.5zM742 875l-68 63q43 94 112.5 128t179.5 37v-141
q-70 0 -128.5 -14.5t-95.5 -72.5z" />
    <glyph glyph-name="uni0263" unicode="&#x263;" horiz-adv-x="945" 
d="M393 221l-393 753h177l297 -597l301 597h170l-387 -753h-165zM472 -232q43 0 61 29.5t18 80.5q0 46 -18 112t-61 128q-39 -62 -56 -128t-17 -112q0 -51 17 -80.5t56 -29.5zM472 -358q-109 0 -167.5 62t-58.5 168q0 60 27 140.5t78 171.5t123 181q76 -90 127.5 -180
t77.5 -170.5t26 -142.5q0 -106 -60 -168t-173 -62z" />
    <glyph glyph-name="gbreve" unicode="&#x11f;" horiz-adv-x="992" 
d="M500 -377q-158 0 -252.5 36t-136.5 96t-42 130q0 85 72.5 151t223.5 93l32 55h123q240 0 343 -63.5t103 -196.5q0 -132 -117.5 -216.5t-348.5 -84.5zM496 -256q170 0 239.5 48t69.5 119q0 42 -23.5 72.5t-87 47.5t-180.5 17h-148q-68 -17 -105 -58t-37 -95
q0 -60 63 -105.5t209 -45.5zM363 57q-95 10 -149.5 39.5t-77.5 66t-23 70.5q0 49 39.5 92.5t129.5 71.5l83 -52q-53 -15 -84 -38.5t-31 -52.5q0 -20 18.5 -35.5t63 -25t123.5 -9.5zM488 315q-120 0 -203.5 46.5t-126.5 122t-43 163.5q0 93 43.5 169t128 121t206.5 45
q125 0 208 -45t124 -121t41 -169q0 -90 -41.5 -165.5t-125.5 -121t-211 -45.5zM487 429q96 0 158.5 55t62.5 163q0 113 -59 167.5t-156 54.5q-95 0 -157.5 -56t-62.5 -165q0 -110 64.5 -164.5t149.5 -54.5zM742 875l-68 63q43 94 112.5 128t179.5 37v-141
q-70 0 -128.5 -14.5t-95.5 -72.5zM496 1118q-114 0 -183 66.5t-83 185.5h103q10 -77 57.5 -110t105.5 -33q60 0 110 34t59 109h97q-12 -117 -81.5 -184.5t-184.5 -67.5z" />
    <glyph glyph-name="gcaron" unicode="&#x1e7;" horiz-adv-x="992" 
d="M500 -377q-158 0 -252.5 36t-136.5 96t-42 130q0 85 72.5 151t223.5 93l32 55h123q240 0 343 -63.5t103 -196.5q0 -132 -117.5 -216.5t-348.5 -84.5zM496 -256q170 0 239.5 48t69.5 119q0 42 -23.5 72.5t-87 47.5t-180.5 17h-148q-68 -17 -105 -58t-37 -95
q0 -60 63 -105.5t209 -45.5zM363 57q-95 10 -149.5 39.5t-77.5 66t-23 70.5q0 49 39.5 92.5t129.5 71.5l83 -52q-53 -15 -84 -38.5t-31 -52.5q0 -20 18.5 -35.5t63 -25t123.5 -9.5zM488 315q-120 0 -203.5 46.5t-126.5 122t-43 163.5q0 93 43.5 169t128 121t206.5 45
q125 0 208 -45t124 -121t41 -169q0 -90 -41.5 -165.5t-125.5 -121t-211 -45.5zM487 429q96 0 158.5 55t62.5 163q0 113 -59 167.5t-156 54.5q-95 0 -157.5 -56t-62.5 -165q0 -110 64.5 -164.5t149.5 -54.5zM742 875l-68 63q43 94 112.5 128t179.5 37v-141
q-70 0 -128.5 -14.5t-95.5 -72.5zM414 1110l-214 269h138l160 -172l158 172h139l-214 -269h-167z" />
    <glyph glyph-name="gcircumflex" unicode="&#x11d;" horiz-adv-x="992" 
d="M500 -377q-158 0 -252.5 36t-136.5 96t-42 130q0 85 72.5 151t223.5 93l32 55h123q240 0 343 -63.5t103 -196.5q0 -132 -117.5 -216.5t-348.5 -84.5zM496 -256q170 0 239.5 48t69.5 119q0 42 -23.5 72.5t-87 47.5t-180.5 17h-148q-68 -17 -105 -58t-37 -95
q0 -60 63 -105.5t209 -45.5zM363 57q-95 10 -149.5 39.5t-77.5 66t-23 70.5q0 49 39.5 92.5t129.5 71.5l83 -52q-53 -15 -84 -38.5t-31 -52.5q0 -20 18.5 -35.5t63 -25t123.5 -9.5zM488 315q-120 0 -203.5 46.5t-126.5 122t-43 163.5q0 93 43.5 169t128 121t206.5 45
q125 0 208 -45t124 -121t41 -169q0 -90 -41.5 -165.5t-125.5 -121t-211 -45.5zM487 429q96 0 158.5 55t62.5 163q0 113 -59 167.5t-156 54.5q-95 0 -157.5 -56t-62.5 -165q0 -110 64.5 -164.5t149.5 -54.5zM742 875l-68 63q43 94 112.5 128t179.5 37v-141
q-70 0 -128.5 -14.5t-95.5 -72.5zM202 1110l214 269h167l214 -269h-139l-158 172l-160 -172h-138z" />
    <glyph glyph-name="uni0123" unicode="&#x123;" horiz-adv-x="992" 
d="M500 -377q-158 0 -252.5 36t-136.5 96t-42 130q0 85 72.5 151t223.5 93l32 55h123q240 0 343 -63.5t103 -196.5q0 -132 -117.5 -216.5t-348.5 -84.5zM496 -256q170 0 239.5 48t69.5 119q0 42 -23.5 72.5t-87 47.5t-180.5 17h-148q-68 -17 -105 -58t-37 -95
q0 -60 63 -105.5t209 -45.5zM363 57q-95 10 -149.5 39.5t-77.5 66t-23 70.5q0 49 39.5 92.5t129.5 71.5l83 -52q-53 -15 -84 -38.5t-31 -52.5q0 -20 18.5 -35.5t63 -25t123.5 -9.5zM488 315q-120 0 -203.5 46.5t-126.5 122t-43 163.5q0 93 43.5 169t128 121t206.5 45
q125 0 208 -45t124 -121t41 -169q0 -90 -41.5 -165.5t-125.5 -121t-211 -45.5zM487 429q96 0 158.5 55t62.5 163q0 113 -59 167.5t-156 54.5q-95 0 -157.5 -56t-62.5 -165q0 -110 64.5 -164.5t149.5 -54.5zM742 875l-68 63q43 94 112.5 128t179.5 37v-141
q-70 0 -128.5 -14.5t-95.5 -72.5zM493 1083q-45 0 -76 28.5t-31 84.5t28 102t73.5 77.5t99.5 42.5l22 -68q-31 -13 -60.5 -35.5t-41.5 -54.5q38 -6 62 -30t24 -57q0 -38 -27.5 -64t-72.5 -26z" />
    <glyph glyph-name="gdotaccent" unicode="&#x121;" horiz-adv-x="992" 
d="M500 -377q-158 0 -252.5 36t-136.5 96t-42 130q0 85 72.5 151t223.5 93l32 55h123q240 0 343 -63.5t103 -196.5q0 -132 -117.5 -216.5t-348.5 -84.5zM496 -256q170 0 239.5 48t69.5 119q0 42 -23.5 72.5t-87 47.5t-180.5 17h-148q-68 -17 -105 -58t-37 -95
q0 -60 63 -105.5t209 -45.5zM363 57q-95 10 -149.5 39.5t-77.5 66t-23 70.5q0 49 39.5 92.5t129.5 71.5l83 -52q-53 -15 -84 -38.5t-31 -52.5q0 -20 18.5 -35.5t63 -25t123.5 -9.5zM488 315q-120 0 -203.5 46.5t-126.5 122t-43 163.5q0 93 43.5 169t128 121t206.5 45
q125 0 208 -45t124 -121t41 -169q0 -90 -41.5 -165.5t-125.5 -121t-211 -45.5zM487 429q96 0 158.5 55t62.5 163q0 113 -59 167.5t-156 54.5q-95 0 -157.5 -56t-62.5 -165q0 -110 64.5 -164.5t149.5 -54.5zM742 875l-68 63q43 94 112.5 128t179.5 37v-141
q-70 0 -128.5 -14.5t-95.5 -72.5zM498 1157q-47 0 -76 27.5t-29 69.5t29 69.5t76 27.5t76 -27.5t29 -69.5t-29 -69.5t-76 -27.5z" />
    <glyph glyph-name="h" unicode="h" horiz-adv-x="1129" 
d="M161 0v1346h166v-522q45 59 129 111.5t214 52.5q164 0 235.5 -94t71.5 -266v-628h-167v605q0 70 -14.5 125t-53.5 86.5t-112 31.5q-109 0 -183 -49.5t-119 -108.5v-690h-167z" />
    <glyph glyph-name="hbar" unicode="&#x127;" horiz-adv-x="1129" 
d="M34 1117v108h524v-108h-524zM161 0v1346h166v-522q45 59 129 111.5t214 52.5q164 0 235.5 -94t71.5 -266v-628h-167v605q0 70 -14.5 125t-53.5 86.5t-112 31.5q-109 0 -183 -49.5t-119 -108.5v-690h-167z" />
    <glyph glyph-name="hcircumflex" unicode="&#x125;" horiz-adv-x="1129" 
d="M161 0v1346h166v-522q45 59 129 111.5t214 52.5q164 0 235.5 -94t71.5 -266v-628h-167v605q0 70 -14.5 125t-53.5 86.5t-112 31.5q-109 0 -183 -49.5t-119 -108.5v-690h-167zM269 1482l214 269h167l214 -269h-139l-158 172l-160 -172h-138z" />
    <glyph glyph-name="i" unicode="i" horiz-adv-x="489" 
d="M161 0v974h167v-974h-167zM244 1157q-47 0 -75.5 27.5t-28.5 69.5t28.5 69.5t75.5 27.5t76 -27.5t29 -69.5t-29 -69.5t-76 -27.5z" />
    <glyph glyph-name="dotlessi" unicode="&#x131;" horiz-adv-x="489" 
d="M161 0v974h167v-974h-167z" />
    <glyph glyph-name="iacute" unicode="&#xed;" horiz-adv-x="489" 
d="M161 0v974h167v-974h-167zM150 1110l203 269h194l-268 -269h-129z" />
    <glyph glyph-name="ibreve" unicode="&#x12d;" horiz-adv-x="489" 
d="M161 0v974h167v-974h-167zM242 1118q-114 0 -183 66.5t-83 185.5h103q10 -77 57.5 -110t105.5 -33q60 0 110 34t59 109h97q-12 -117 -81.5 -184.5t-184.5 -67.5z" />
    <glyph glyph-name="icircumflex" unicode="&#xee;" horiz-adv-x="489" 
d="M161 0v974h167v-974h-167zM-52 1110l214 269h167l214 -269h-139l-158 172l-160 -172h-138z" />
    <glyph glyph-name="idieresis" unicode="&#xef;" horiz-adv-x="489" 
d="M161 0v974h167v-974h-167zM396 1164q-40 0 -67 25t-27 65q0 39 27 64.5t67 25.5t66 -25.5t26 -64.5q0 -40 -26 -65t-66 -25zM93 1164q-40 0 -66.5 25t-26.5 65q0 39 26.5 64.5t66.5 25.5t66.5 -25.5t26.5 -64.5q0 -40 -26.5 -65t-66.5 -25z" />
    <glyph glyph-name="i.aalt" horiz-adv-x="489" 
d="M161 0v974h167v-974h-167zM244 1157q-47 0 -76 27.5t-29 69.5t29 69.5t76 27.5t76 -27.5t29 -69.5t-29 -69.5t-76 -27.5z" />
    <glyph glyph-name="uni1ECB" unicode="&#x1ecb;" horiz-adv-x="489" 
d="M161 0v974h167v-974h-167zM244 1157q-47 0 -75.5 27.5t-28.5 69.5t28.5 69.5t75.5 27.5t76 -27.5t29 -69.5t-29 -69.5t-76 -27.5zM244 -291q-47 0 -76 27.5t-29 69.5t29 69.5t76 27.5t76 -27.5t29 -69.5t-29 -69.5t-76 -27.5z" />
    <glyph glyph-name="igrave" unicode="&#xec;" horiz-adv-x="489" 
d="M161 0v974h167v-974h-167zM208 1110l-267 269h192l204 -269h-129z" />
    <glyph glyph-name="uni1EC9" unicode="&#x1ec9;" horiz-adv-x="489" 
d="M161 0v974h167v-974h-167zM204 1133l-42 61q35 10 63.5 34t28.5 59q0 37 -25.5 49.5t-74.5 12.5h-13v102h33q118 0 177 -35.5t59 -110.5q0 -47 -26 -83.5t-72 -58.5t-108 -30zM162 1194l112 -12v-94h-112v106z" />
    <glyph glyph-name="ij" unicode="&#x133;" horiz-adv-x="978" 
d="M161 0v974h167v-974h-167zM244 1157q-47 0 -75.5 27.5t-28.5 69.5t28.5 69.5t75.5 27.5t76 -27.5t29 -69.5t-29 -69.5t-76 -27.5zM461 -358v136h43q73 0 109.5 34.5t36.5 115.5v1046h167v-1032q0 -146 -67.5 -223t-221.5 -77h-67zM733 1157q-47 0 -75.5 27.5t-28.5 69.5
t28.5 69.5t75.5 27.5t76 -27.5t29 -69.5t-29 -69.5t-76 -27.5z" />
    <glyph glyph-name="imacron" unicode="&#x12b;" horiz-adv-x="489" 
d="M161 0v974h167v-974h-167zM35 1188v103h419v-103h-419z" />
    <glyph glyph-name="iogonek" unicode="&#x12f;" horiz-adv-x="489" 
d="M161 0v974h167v-974h-167zM244 1157q-47 0 -76 27.5t-29 69.5t29 69.5t76 27.5t76 -27.5t29 -69.5t-29 -69.5t-76 -27.5zM198 -375q-76 0 -129.5 43t-53.5 119q0 51 31.5 101t85 89.5t118.5 56.5l63 -18q-88 -57 -122 -109.5t-34 -94.5q0 -35 20.5 -53.5t51.5 -18.5
q34 0 63.5 8.5t61.5 22.5v-111q-29 -16 -63.5 -25.5t-92.5 -9.5z" />
    <glyph glyph-name="itilde" unicode="&#x129;" horiz-adv-x="489" 
d="M161 0v974h167v-974h-167zM-47 1138q10 92 47.5 146t112.5 54q41 0 80.5 -14t76.5 -31q33 -14 59.5 -23t48.5 -9q24 0 40 20t20 62h98q-10 -89 -45.5 -141.5t-109.5 -52.5q-44 0 -83 13.5t-74 28.5q-34 15 -60 24.5t-49 9.5q-27 0 -43 -21t-21 -66h-98z" />
    <glyph glyph-name="j" unicode="j" horiz-adv-x="489" 
d="M-28 -358v136h43q73 0 109.5 34.5t36.5 115.5v1046h167v-1032q0 -146 -67.5 -223t-221.5 -77h-67zM244 1157q-47 0 -75.5 27.5t-28.5 69.5t28.5 69.5t75.5 27.5t76 -27.5t29 -69.5t-29 -69.5t-76 -27.5z" />
    <glyph glyph-name="uni0237" unicode="&#x237;" horiz-adv-x="489" 
d="M-28 -358v136h43q73 0 109.5 34.5t36.5 115.5v1046h167v-1032q0 -146 -67.5 -223t-221.5 -77h-67z" />
    <glyph glyph-name="jcircumflex" unicode="&#x135;" horiz-adv-x="489" 
d="M-28 -358v136h43q73 0 109.5 34.5t36.5 115.5v1046h167v-1032q0 -146 -67.5 -223t-221.5 -77h-67zM-52 1110l214 269h167l214 -269h-139l-158 172l-160 -172h-138z" />
    <glyph glyph-name="k" unicode="k" horiz-adv-x="997" 
d="M161 0v1346h167v-831l440 459h197l-440 -456l480 -518h-208l-469 506v-506h-167z" />
    <glyph glyph-name="uni0137" unicode="&#x137;" horiz-adv-x="997" 
d="M161 0v1346h167v-831l440 459h197l-440 -456l480 -518h-208l-469 506v-506h-167zM463 -382l-20 65q33 13 62.5 34t38.5 52q-38 4 -62 28.5t-24 58.5q0 36 26.5 60.5t72.5 24.5q44 0 74.5 -27.5t30.5 -80.5q0 -81 -59 -139t-140 -76z" />
    <glyph glyph-name="kgreenlandic" unicode="&#x138;" horiz-adv-x="997" 
d="M161 0v974h167v-459l440 459h197l-440 -456l480 -518h-208l-469 507v-507h-167z" />
    <glyph glyph-name="uni0199" unicode="&#x199;" horiz-adv-x="997" 
d="M161 0v1044l167 10v-539l440 459h197l-445 -456l485 -518h-203l-474 506v-506h-167zM161 1044q0 148 64 225t209 77h77v-137h-43q-71 0 -106.5 -37t-33.5 -118z" />
    <glyph glyph-name="l" unicode="l" horiz-adv-x="533" 
d="M441 0q-119 0 -182 37.5t-86 108t-23 169.5v1031h166v-1023q0 -91 23.5 -139t112.5 -48h45v-136h-56z" />
    <glyph glyph-name="lacute" unicode="&#x13a;" horiz-adv-x="533" 
d="M441 0q-119 0 -182 37.5t-86 108t-23 169.5v1031h166v-1023q0 -91 23.5 -139t112.5 -48h45v-136h-56zM147 1481l203 269h194l-268 -269h-129z" />
    <glyph glyph-name="lcaron" unicode="&#x13e;" horiz-adv-x="533" 
d="M441 0q-119 0 -182 37.5t-86 108t-23 169.5v1031h166v-1023q0 -91 23.5 -139t112.5 -48h45v-136h-56zM370 1028l66 318h166l-120 -318h-112z" />
    <glyph glyph-name="uni013C" unicode="&#x13c;" horiz-adv-x="533" 
d="M441 0q-119 0 -182 37.5t-86 108t-23 169.5v1031h166v-1023q0 -91 23.5 -139t112.5 -48h45v-136h-56zM233 -382l-20 65q33 13 62.5 34t38.5 52q-38 4 -62 28.5t-24 58.5q0 36 26.5 60.5t72.5 24.5q44 0 74.5 -27.5t30.5 -80.5q0 -81 -59 -139t-140 -76z" />
    <glyph glyph-name="ldot" unicode="&#x140;" horiz-adv-x="584" 
d="M441 0q-119 0 -182 37.5t-86 108t-23 169.5v1031h166v-1023q0 -91 23.5 -139t112.5 -48h45v-136h-56zM524 586q-56 0 -93 36.5t-37 89.5q0 55 37 90.5t93 35.5q55 0 91 -35.5t36 -90.5q0 -53 -36 -89.5t-91 -36.5z" />
    <glyph glyph-name="lslash" unicode="&#x142;" horiz-adv-x="533" 
d="M227 660v147l247 192v-147zM0 502v145l227 175v-145zM441 0q-119 0 -182 37.5t-86 108t-23 169.5v1031h166v-1023q0 -91 23.5 -139t112.5 -48h45v-136h-56z" />
    <glyph glyph-name="m" unicode="m" horiz-adv-x="1747" 
d="M161 0v974h160l6 -150q43 59 126 111.5t207 52.5q162 0 233 -95t71 -265v-628h-168v604q0 71 -14.5 126t-53.5 86.5t-112 31.5q-103 0 -174 -49.5t-114 -108.5v-690h-167zM1429 0v604q0 71 -14.5 126t-53.5 86.5t-111 31.5q-104 0 -175 -48.5t-117 -107.5l-25 122
q58 64 146.5 119t212.5 55q162 0 233 -95t71 -265v-628h-167z" />
    <glyph glyph-name="n" unicode="n" horiz-adv-x="1129" 
d="M161 0v974h160l6 -150q45 59 129 111.5t215 52.5q160 0 233 -94.5t73 -265.5v-628h-167v604q0 71 -15 126t-53.5 86.5t-111.5 31.5q-109 0 -183 -49.5t-119 -108.5v-690h-167z" />
    <glyph glyph-name="nacute" unicode="&#x144;" horiz-adv-x="1129" 
d="M161 0v974h160l6 -150q45 59 129 111.5t215 52.5q160 0 233 -94.5t73 -265.5v-628h-167v604q0 71 -15 126t-53.5 86.5t-111.5 31.5q-109 0 -183 -49.5t-119 -108.5v-690h-167zM478 1110l203 269h194l-268 -269h-129z" />
    <glyph glyph-name="napostrophe" unicode="&#x149;" horiz-adv-x="1229" 
d="M261 0v974h160l6 -150q45 59 129 111.5t215 52.5q160 0 233 -94.5t73 -265.5v-628h-167v604q0 71 -15 126t-53.5 86.5t-111.5 31.5q-109 0 -183 -49.5t-119 -108.5v-690h-167zM-27 853l-39 87q64 32 105 78t48 112l12 -9q-56 0 -92.5 34.5t-36.5 86.5q0 55 36.5 89.5
t92.5 34.5t91.5 -39.5t35.5 -119.5q0 -89 -33.5 -159t-90.5 -119t-129 -76z" />
    <glyph glyph-name="ncaron" unicode="&#x148;" horiz-adv-x="1129" 
d="M161 0v974h160l6 -150q45 59 129 111.5t215 52.5q160 0 233 -94.5t73 -265.5v-628h-167v604q0 71 -15 126t-53.5 86.5t-111.5 31.5q-109 0 -183 -49.5t-119 -108.5v-690h-167zM488 1110l-214 269h138l160 -172l158 172h139l-214 -269h-167z" />
    <glyph glyph-name="uni0146" unicode="&#x146;" horiz-adv-x="1129" 
d="M161 0v974h160l6 -150q45 59 129 111.5t215 52.5q160 0 233 -94.5t73 -265.5v-628h-167v604q0 71 -15 126t-53.5 86.5t-111.5 31.5q-109 0 -183 -49.5t-119 -108.5v-690h-167zM481 -382l-20 65q33 13 62.5 34t38.5 52q-38 4 -62 28.5t-24 58.5q0 36 26.5 60.5t72.5 24.5
q44 0 74.5 -27.5t30.5 -80.5q0 -81 -59 -139t-140 -76z" />
    <glyph glyph-name="uni01F9" unicode="&#x1f9;" horiz-adv-x="1129" 
d="M161 0v974h160l6 -150q45 59 129 111.5t215 52.5q160 0 233 -94.5t73 -265.5v-628h-167v604q0 71 -15 126t-53.5 86.5t-111.5 31.5q-109 0 -183 -49.5t-119 -108.5v-690h-167zM536 1110l-267 269h192l204 -269h-129z" />
    <glyph glyph-name="ntilde" unicode="&#xf1;" horiz-adv-x="1129" 
d="M161 0v974h160l6 -150q45 59 129 111.5t215 52.5q160 0 233 -94.5t73 -265.5v-628h-167v604q0 71 -15 126t-53.5 86.5t-111.5 31.5q-109 0 -183 -49.5t-119 -108.5v-690h-167zM281 1138q10 92 47.5 146t112.5 54q41 0 80.5 -14t76.5 -31q33 -14 59.5 -23t48.5 -9
q24 0 40 20t20 62h98q-10 -89 -45.5 -141.5t-109.5 -52.5q-44 0 -83 13.5t-74 28.5q-34 15 -60 24.5t-49 9.5q-27 0 -43 -21t-21 -66h-98z" />
    <glyph glyph-name="eng" unicode="&#x14b;" horiz-adv-x="1129" 
d="M621 -358v136h44q73 0 109 33.5t36 112.5v173h167v-164q0 -141 -67.5 -216t-221.5 -75h-67zM161 0v974h160l6 -150q45 59 129 111.5t215 52.5q160 0 233 -94.5t73 -265.5v-628h-167v604q0 71 -15 126t-53.5 86.5t-111.5 31.5q-109 0 -183 -49.5t-119 -108.5v-690h-167z
" />
    <glyph glyph-name="o" unicode="o" horiz-adv-x="1130" 
d="M560 -16q-143 0 -245 60.5t-155.5 173t-53.5 267.5q0 159 53.5 272.5t155.5 174.5t245 61q146 0 249.5 -61t159 -174.5t55.5 -272.5q0 -155 -55.5 -267.5t-159 -173t-249.5 -60.5zM560 117q108 0 172 47.5t92 131t28 189.5q0 108 -28 193t-92 133.5t-172 48.5
q-105 0 -166.5 -48.5t-88.5 -133.5t-27 -193q0 -106 27 -189.5t88.5 -131t166.5 -47.5z" />
    <glyph glyph-name="oacute" unicode="&#xf3;" horiz-adv-x="1130" 
d="M560 -16q-143 0 -245 60.5t-155.5 173t-53.5 267.5q0 159 53.5 272.5t155.5 174.5t245 61q146 0 249.5 -61t159 -174.5t55.5 -272.5q0 -155 -55.5 -267.5t-159 -173t-249.5 -60.5zM560 117q108 0 172 47.5t92 131t28 189.5q0 108 -28 193t-92 133.5t-172 48.5
q-105 0 -166.5 -48.5t-88.5 -133.5t-27 -193q0 -106 27 -189.5t88.5 -131t166.5 -47.5zM470 1110l203 269h194l-268 -269h-129z" />
    <glyph glyph-name="obreve" unicode="&#x14f;" horiz-adv-x="1130" 
d="M560 -16q-143 0 -245 60.5t-155.5 173t-53.5 267.5q0 159 53.5 272.5t155.5 174.5t245 61q146 0 249.5 -61t159 -174.5t55.5 -272.5q0 -155 -55.5 -267.5t-159 -173t-249.5 -60.5zM560 117q108 0 172 47.5t92 131t28 189.5q0 108 -28 193t-92 133.5t-172 48.5
q-105 0 -166.5 -48.5t-88.5 -133.5t-27 -193q0 -106 27 -189.5t88.5 -131t166.5 -47.5zM562 1118q-114 0 -183 66.5t-83 185.5h103q10 -77 57.5 -110t105.5 -33q60 0 110 34t59 109h97q-12 -117 -81.5 -184.5t-184.5 -67.5z" />
    <glyph glyph-name="ocircumflex" unicode="&#xf4;" horiz-adv-x="1130" 
d="M560 -16q-143 0 -245 60.5t-155.5 173t-53.5 267.5q0 159 53.5 272.5t155.5 174.5t245 61q146 0 249.5 -61t159 -174.5t55.5 -272.5q0 -155 -55.5 -267.5t-159 -173t-249.5 -60.5zM560 117q108 0 172 47.5t92 131t28 189.5q0 108 -28 193t-92 133.5t-172 48.5
q-105 0 -166.5 -48.5t-88.5 -133.5t-27 -193q0 -106 27 -189.5t88.5 -131t166.5 -47.5zM268 1110l214 269h167l214 -269h-139l-158 172l-160 -172h-138z" />
    <glyph glyph-name="uni1ED1" unicode="&#x1ed1;" horiz-adv-x="1130" 
d="M560 -16q-143 0 -245 60.5t-155.5 173t-53.5 267.5q0 159 53.5 272.5t155.5 174.5t245 61q146 0 249.5 -61t159 -174.5t55.5 -272.5q0 -155 -55.5 -267.5t-159 -173t-249.5 -60.5zM560 117q108 0 172 47.5t92 131t28 189.5q0 108 -28 193t-92 133.5t-172 48.5
q-105 0 -166.5 -48.5t-88.5 -133.5t-27 -193q0 -106 27 -189.5t88.5 -131t166.5 -47.5zM255 1107l214 269h167l214 -269h-138l-158 172l-160 -172h-139zM746 1275l163 269h183l-226 -269h-120z" />
    <glyph glyph-name="uni1ED9" unicode="&#x1ed9;" horiz-adv-x="1130" 
d="M560 -16q-143 0 -245 60.5t-155.5 173t-53.5 267.5q0 159 53.5 272.5t155.5 174.5t245 61q146 0 249.5 -61t159 -174.5t55.5 -272.5q0 -155 -55.5 -267.5t-159 -173t-249.5 -60.5zM560 117q108 0 172 47.5t92 131t28 189.5q0 108 -28 193t-92 133.5t-172 48.5
q-105 0 -166.5 -48.5t-88.5 -133.5t-27 -193q0 -106 27 -189.5t88.5 -131t166.5 -47.5zM564 -291q-47 0 -76 27.5t-29 69.5t29 69.5t76 27.5t76 -27.5t29 -69.5t-29 -69.5t-76 -27.5zM268 1110l214 269h167l214 -269h-139l-158 172l-160 -172h-138z" />
    <glyph glyph-name="uni1ED3" unicode="&#x1ed3;" horiz-adv-x="1130" 
d="M560 -16q-143 0 -245 60.5t-155.5 173t-53.5 267.5q0 159 53.5 272.5t155.5 174.5t245 61q146 0 249.5 -61t159 -174.5t55.5 -272.5q0 -155 -55.5 -267.5t-159 -173t-249.5 -60.5zM560 117q108 0 172 47.5t92 131t28 189.5q0 108 -28 193t-92 133.5t-172 48.5
q-105 0 -166.5 -48.5t-88.5 -133.5t-27 -193q0 -106 27 -189.5t88.5 -131t166.5 -47.5zM251 1107l214 269h167l214 -269h-138l-158 172l-160 -172h-139zM352 1275h-119l-227 269h185z" />
    <glyph glyph-name="uni1ED5" unicode="&#x1ed5;" horiz-adv-x="1130" 
d="M560 -16q-143 0 -245 60.5t-155.5 173t-53.5 267.5q0 159 53.5 272.5t155.5 174.5t245 61q146 0 249.5 -61t159 -174.5t55.5 -272.5q0 -155 -55.5 -267.5t-159 -173t-249.5 -60.5zM560 117q108 0 172 47.5t92 131t28 189.5q0 108 -28 193t-92 133.5t-172 48.5
q-105 0 -166.5 -48.5t-88.5 -133.5t-27 -193q0 -106 27 -189.5t88.5 -131t166.5 -47.5zM251 1107l214 269h167l214 -269h-138l-158 172l-160 -172h-139zM788 1271l-42 61q35 11 63.5 34.5t28.5 59.5q0 38 -26 50t-74 12h-13v101h33q104 0 157 -35t53 -106q0 -75 -50 -119.5
t-130 -57.5z" />
    <glyph glyph-name="uni1ED7" unicode="&#x1ed7;" horiz-adv-x="1130" 
d="M560 -16q-143 0 -245 60.5t-155.5 173t-53.5 267.5q0 159 53.5 272.5t155.5 174.5t245 61q146 0 249.5 -61t159 -174.5t55.5 -272.5q0 -155 -55.5 -267.5t-159 -173t-249.5 -60.5zM560 117q108 0 172 47.5t92 131t28 189.5q0 108 -28 193t-92 133.5t-172 48.5
q-105 0 -166.5 -48.5t-88.5 -133.5t-27 -193q0 -106 27 -189.5t88.5 -131t166.5 -47.5zM251 1107l214 269h167l214 -269h-138l-158 172l-160 -172h-139zM240 1447q11 92 53.5 146t127.5 54q40 0 79.5 -14t76.5 -30q33 -15 59 -24t49 -9q33 0 53.5 20t26.5 62h98
q-11 -89 -51.5 -141.5t-123.5 -52.5q-43 0 -82.5 13.5t-74.5 28.5t-60.5 24.5t-47.5 9.5q-35 0 -57 -21t-28 -66h-98z" />
    <glyph glyph-name="odieresis" unicode="&#xf6;" horiz-adv-x="1130" 
d="M560 -16q-143 0 -245 60.5t-155.5 173t-53.5 267.5q0 159 53.5 272.5t155.5 174.5t245 61q146 0 249.5 -61t159 -174.5t55.5 -272.5q0 -155 -55.5 -267.5t-159 -173t-249.5 -60.5zM560 117q108 0 172 47.5t92 131t28 189.5q0 108 -28 193t-92 133.5t-172 48.5
q-105 0 -166.5 -48.5t-88.5 -133.5t-27 -193q0 -106 27 -189.5t88.5 -131t166.5 -47.5zM740 1164q-40 0 -66.5 25t-26.5 65q0 39 26.5 64.5t66.5 25.5t67 -25.5t27 -64.5q0 -40 -27 -65t-67 -25zM388 1164q-39 0 -66.5 25t-27.5 65q0 39 27.5 64.5t66.5 25.5q40 0 67 -25.5
t27 -64.5q0 -40 -27 -65t-67 -25z" />
    <glyph glyph-name="uni1ECD" unicode="&#x1ecd;" horiz-adv-x="1130" 
d="M560 -16q-143 0 -245 60.5t-155.5 173t-53.5 267.5q0 159 53.5 272.5t155.5 174.5t245 61q146 0 249.5 -61t159 -174.5t55.5 -272.5q0 -155 -55.5 -267.5t-159 -173t-249.5 -60.5zM560 117q108 0 172 47.5t92 131t28 189.5q0 108 -28 193t-92 133.5t-172 48.5
q-105 0 -166.5 -48.5t-88.5 -133.5t-27 -193q0 -106 27 -189.5t88.5 -131t166.5 -47.5zM564 -291q-47 0 -76 27.5t-29 69.5t29 69.5t76 27.5t76 -27.5t29 -69.5t-29 -69.5t-76 -27.5z" />
    <glyph glyph-name="ograve" unicode="&#xf2;" horiz-adv-x="1130" 
d="M560 -16q-143 0 -245 60.5t-155.5 173t-53.5 267.5q0 159 53.5 272.5t155.5 174.5t245 61q146 0 249.5 -61t159 -174.5t55.5 -272.5q0 -155 -55.5 -267.5t-159 -173t-249.5 -60.5zM560 117q108 0 172 47.5t92 131t28 189.5q0 108 -28 193t-92 133.5t-172 48.5
q-105 0 -166.5 -48.5t-88.5 -133.5t-27 -193q0 -106 27 -189.5t88.5 -131t166.5 -47.5zM528 1110l-267 269h192l204 -269h-129z" />
    <glyph glyph-name="uni1ECF" unicode="&#x1ecf;" horiz-adv-x="1130" 
d="M560 -16q-143 0 -245 60.5t-155.5 173t-53.5 267.5q0 159 53.5 272.5t155.5 174.5t245 61q146 0 249.5 -61t159 -174.5t55.5 -272.5q0 -155 -55.5 -267.5t-159 -173t-249.5 -60.5zM560 117q108 0 172 47.5t92 131t28 189.5q0 108 -28 193t-92 133.5t-172 48.5
q-105 0 -166.5 -48.5t-88.5 -133.5t-27 -193q0 -106 27 -189.5t88.5 -131t166.5 -47.5zM514 1133l-42 61q35 10 63.5 34t28.5 59q0 37 -25.5 49.5t-74.5 12.5h-13v102h33q118 0 177 -35.5t59 -110.5q0 -47 -26 -83.5t-72 -58.5t-108 -30zM472 1194l112 -12v-94h-112v106z
" />
    <glyph glyph-name="ohorn" unicode="&#x1a1;" horiz-adv-x="1145" 
d="M919 719l-37 80q71 31 117.5 75.5t54.5 106.5l10 -8q-51 0 -85.5 32t-34.5 82q0 51 33.5 83t86.5 32q55 0 89.5 -36.5t34.5 -111.5q0 -82 -35 -148.5t-96 -113.5t-138 -73zM560 -16q-143 0 -245 60.5t-155.5 173t-53.5 267.5q0 159 53.5 272.5t155.5 174.5t245 61
q146 0 249.5 -61t159 -174.5t55.5 -272.5q0 -155 -55.5 -267.5t-159 -173t-249.5 -60.5zM560 117q108 0 172 47.5t92 131t28 189.5q0 108 -28 193t-92 133.5t-172 48.5q-105 0 -166.5 -48.5t-88.5 -133.5t-27 -193q0 -106 27 -189.5t88.5 -131t166.5 -47.5z" />
    <glyph glyph-name="uni1EDB" unicode="&#x1edb;" horiz-adv-x="1145" 
d="M919 719l-37 80q71 31 117.5 75.5t54.5 106.5l10 -8q-51 0 -85.5 32t-34.5 82q0 51 33.5 83t86.5 32q55 0 89.5 -36.5t34.5 -111.5q0 -82 -35 -148.5t-96 -113.5t-138 -73zM560 -16q-143 0 -245 60.5t-155.5 173t-53.5 267.5q0 159 53.5 272.5t155.5 174.5t245 61
q146 0 249.5 -61t159 -174.5t55.5 -272.5q0 -155 -55.5 -267.5t-159 -173t-249.5 -60.5zM560 117q108 0 172 47.5t92 131t28 189.5q0 108 -28 193t-92 133.5t-172 48.5q-105 0 -166.5 -48.5t-88.5 -133.5t-27 -193q0 -106 27 -189.5t88.5 -131t166.5 -47.5zM470 1110
l203 269h194l-268 -269h-129z" />
    <glyph glyph-name="uni1EE3" unicode="&#x1ee3;" horiz-adv-x="1145" 
d="M919 719l-37 80q71 31 117.5 75.5t54.5 106.5l10 -8q-51 0 -85.5 32t-34.5 82q0 51 33.5 83t86.5 32q55 0 89.5 -36.5t34.5 -111.5q0 -82 -35 -148.5t-96 -113.5t-138 -73zM560 -16q-143 0 -245 60.5t-155.5 173t-53.5 267.5q0 159 53.5 272.5t155.5 174.5t245 61
q146 0 249.5 -61t159 -174.5t55.5 -272.5q0 -155 -55.5 -267.5t-159 -173t-249.5 -60.5zM560 117q108 0 172 47.5t92 131t28 189.5q0 108 -28 193t-92 133.5t-172 48.5q-105 0 -166.5 -48.5t-88.5 -133.5t-27 -193q0 -106 27 -189.5t88.5 -131t166.5 -47.5zM564 -291
q-47 0 -76 27.5t-29 69.5t29 69.5t76 27.5t76 -27.5t29 -69.5t-29 -69.5t-76 -27.5z" />
    <glyph glyph-name="uni1EDD" unicode="&#x1edd;" horiz-adv-x="1145" 
d="M919 719l-37 80q71 31 117.5 75.5t54.5 106.5l10 -8q-51 0 -85.5 32t-34.5 82q0 51 33.5 83t86.5 32q55 0 89.5 -36.5t34.5 -111.5q0 -82 -35 -148.5t-96 -113.5t-138 -73zM560 -16q-143 0 -245 60.5t-155.5 173t-53.5 267.5q0 159 53.5 272.5t155.5 174.5t245 61
q146 0 249.5 -61t159 -174.5t55.5 -272.5q0 -155 -55.5 -267.5t-159 -173t-249.5 -60.5zM560 117q108 0 172 47.5t92 131t28 189.5q0 108 -28 193t-92 133.5t-172 48.5q-105 0 -166.5 -48.5t-88.5 -133.5t-27 -193q0 -106 27 -189.5t88.5 -131t166.5 -47.5zM528 1110
l-267 269h192l204 -269h-129z" />
    <glyph glyph-name="uni1EDF" unicode="&#x1edf;" horiz-adv-x="1145" 
d="M919 719l-37 80q71 31 117.5 75.5t54.5 106.5l10 -8q-51 0 -85.5 32t-34.5 82q0 51 33.5 83t86.5 32q55 0 89.5 -36.5t34.5 -111.5q0 -82 -35 -148.5t-96 -113.5t-138 -73zM560 -16q-143 0 -245 60.5t-155.5 173t-53.5 267.5q0 159 53.5 272.5t155.5 174.5t245 61
q146 0 249.5 -61t159 -174.5t55.5 -272.5q0 -155 -55.5 -267.5t-159 -173t-249.5 -60.5zM560 117q108 0 172 47.5t92 131t28 189.5q0 108 -28 193t-92 133.5t-172 48.5q-105 0 -166.5 -48.5t-88.5 -133.5t-27 -193q0 -106 27 -189.5t88.5 -131t166.5 -47.5zM514 1133l-42 61
q35 10 63.5 34t28.5 59q0 37 -25.5 49.5t-74.5 12.5h-13v102h33q118 0 177 -35.5t59 -110.5q0 -47 -26 -83.5t-72 -58.5t-108 -30zM472 1194l112 -12v-94h-112v106z" />
    <glyph glyph-name="uni1EE1" unicode="&#x1ee1;" horiz-adv-x="1145" 
d="M919 719l-37 80q71 31 117.5 75.5t54.5 106.5l10 -8q-51 0 -85.5 32t-34.5 82q0 51 33.5 83t86.5 32q55 0 89.5 -36.5t34.5 -111.5q0 -82 -35 -148.5t-96 -113.5t-138 -73zM560 -16q-143 0 -245 60.5t-155.5 173t-53.5 267.5q0 159 53.5 272.5t155.5 174.5t245 61
q146 0 249.5 -61t159 -174.5t55.5 -272.5q0 -155 -55.5 -267.5t-159 -173t-249.5 -60.5zM560 117q108 0 172 47.5t92 131t28 189.5q0 108 -28 193t-92 133.5t-172 48.5q-105 0 -166.5 -48.5t-88.5 -133.5t-27 -193q0 -106 27 -189.5t88.5 -131t166.5 -47.5zM273 1138
q10 92 47.5 146t112.5 54q41 0 80.5 -14t76.5 -31q33 -14 59.5 -23t48.5 -9q24 0 40 20t20 62h98q-10 -89 -45.5 -141.5t-109.5 -52.5q-44 0 -83 13.5t-74 28.5q-34 15 -60 24.5t-49 9.5q-27 0 -43 -21t-21 -66h-98z" />
    <glyph glyph-name="ohungarumlaut" unicode="&#x151;" horiz-adv-x="1130" 
d="M560 -16q-143 0 -245 60.5t-155.5 173t-53.5 267.5q0 159 53.5 272.5t155.5 174.5t245 61q146 0 249.5 -61t159 -174.5t55.5 -272.5q0 -155 -55.5 -267.5t-159 -173t-249.5 -60.5zM560 117q108 0 172 47.5t92 131t28 189.5q0 108 -28 193t-92 133.5t-172 48.5
q-105 0 -166.5 -48.5t-88.5 -133.5t-27 -193q0 -106 27 -189.5t88.5 -131t166.5 -47.5zM604 1110l175 269h172l-227 -269h-120zM318 1110l175 269h171l-227 -269h-119z" />
    <glyph glyph-name="omacron" unicode="&#x14d;" horiz-adv-x="1130" 
d="M560 -16q-143 0 -245 60.5t-155.5 173t-53.5 267.5q0 159 53.5 272.5t155.5 174.5t245 61q146 0 249.5 -61t159 -174.5t55.5 -272.5q0 -155 -55.5 -267.5t-159 -173t-249.5 -60.5zM560 117q108 0 172 47.5t92 131t28 189.5q0 108 -28 193t-92 133.5t-172 48.5
q-105 0 -166.5 -48.5t-88.5 -133.5t-27 -193q0 -106 27 -189.5t88.5 -131t166.5 -47.5zM292 1178v123h545v-123h-545z" />
    <glyph glyph-name="uni01EB" unicode="&#x1eb;" horiz-adv-x="1130" 
d="M560 -16q-143 0 -245 60.5t-155.5 173t-53.5 267.5q0 159 53.5 272.5t155.5 174.5t245 61q146 0 249.5 -61t159 -174.5t55.5 -272.5q0 -155 -55.5 -267.5t-159 -173t-249.5 -60.5zM560 117q108 0 172 47.5t92 131t28 189.5q0 108 -28 193t-92 133.5t-172 48.5
q-105 0 -166.5 -48.5t-88.5 -133.5t-27 -193q0 -106 27 -189.5t88.5 -131t166.5 -47.5zM630 -375q-76 0 -129.5 43t-53.5 119q0 51 31.5 101t85 89.5t118.5 56.5l63 -18q-88 -57 -122 -109.5t-34 -94.5q0 -35 20.5 -53.5t51.5 -18.5q34 0 63.5 8.5t61.5 22.5v-111
q-29 -16 -63.5 -25.5t-92.5 -9.5z" />
    <glyph glyph-name="uni0254" unicode="&#x254;" horiz-adv-x="1075" 
d="M519 -18q-115 0 -207.5 38.5t-147.5 117t-58 196.5h164q5 -107 71.5 -162.5t174.5 -55.5q141 0 212.5 96.5t71.5 271.5q0 177 -71.5 276t-212.5 99q-107 0 -168.5 -55t-69.5 -149h-165q4 114 58 189t144.5 112t203.5 37q135 0 236 -57t157.5 -170t56.5 -282
q0 -168 -57.5 -280t-159 -167t-233.5 -55z" />
    <glyph glyph-name="oslash" unicode="&#xf8;" horiz-adv-x="1130" 
d="M171 -70l-81 70l869 1038l81 -69zM560 -16q-143 0 -245 60t-155.5 172.5t-53.5 268.5q0 158 53.5 271.5t155.5 174.5t245 61q146 0 249.5 -61t159 -174.5t55.5 -271.5q0 -156 -55.5 -268.5t-159 -172.5t-249.5 -60zM560 113q108 0 173.5 48t94.5 132.5t29 191.5
q0 108 -29 193t-94.5 134t-173.5 49q-105 0 -168 -49t-91.5 -134t-28.5 -193q0 -107 28.5 -191.5t91.5 -132.5t168 -48z" />
    <glyph glyph-name="oslashacute" unicode="&#x1ff;" horiz-adv-x="1130" 
d="M171 -70l-81 70l869 1038l81 -69zM560 -16q-143 0 -245 60t-155.5 172.5t-53.5 268.5q0 158 53.5 271.5t155.5 174.5t245 61q146 0 249.5 -61t159 -174.5t55.5 -271.5q0 -156 -55.5 -268.5t-159 -172.5t-249.5 -60zM560 113q108 0 173.5 48t94.5 132.5t29 191.5
q0 108 -29 193t-94.5 134t-173.5 49q-105 0 -168 -49t-91.5 -134t-28.5 -193q0 -107 28.5 -191.5t91.5 -132.5t168 -48zM470 1110l203 269h194l-268 -269h-129z" />
    <glyph glyph-name="otilde" unicode="&#xf5;" horiz-adv-x="1130" 
d="M560 -16q-143 0 -245 60.5t-155.5 173t-53.5 267.5q0 159 53.5 272.5t155.5 174.5t245 61q146 0 249.5 -61t159 -174.5t55.5 -272.5q0 -155 -55.5 -267.5t-159 -173t-249.5 -60.5zM560 117q108 0 172 47.5t92 131t28 189.5q0 108 -28 193t-92 133.5t-172 48.5
q-105 0 -166.5 -48.5t-88.5 -133.5t-27 -193q0 -106 27 -189.5t88.5 -131t166.5 -47.5zM273 1138q10 92 47.5 146t112.5 54q41 0 80.5 -14t76.5 -31q33 -14 59.5 -23t48.5 -9q24 0 40 20t20 62h98q-10 -89 -45.5 -141.5t-109.5 -52.5q-44 0 -83 13.5t-74 28.5
q-34 15 -60 24.5t-49 9.5q-27 0 -43 -21t-21 -66h-98z" />
    <glyph glyph-name="oe" unicode="&#x153;" horiz-adv-x="1828" 
d="M555 -16q-141 0 -241.5 60t-154 172.5t-53.5 268.5q0 158 53.5 271.5t155.5 174.5t245 61q149 0 245.5 -61.5t143 -175.5t46.5 -270t-48.5 -268t-146 -172.5t-245.5 -60.5zM560 116q108 0 173.5 48t94.5 131.5t29 189.5q0 107 -29 191t-94.5 132.5t-173.5 48.5
q-105 0 -168 -48.5t-91 -132.5t-28 -191q0 -106 28 -189.5t91 -131.5t168 -48zM1315 -18q-156 0 -252.5 66.5t-140.5 181t-44 257.5q0 149 42.5 262.5t134.5 177.5t240 64q199 0 312 -120t113 -345q0 -15 -1 -35.5t-3 -29.5h-694q0 -95 29.5 -174.5t93.5 -127.5t170 -48
q112 0 175 52.5t65 151.5h166q-4 -103 -53.5 -177.5t-139.5 -115t-213 -40.5zM1023 583h531q-3 136 -70.5 208t-188.5 72q-123 0 -192 -72t-80 -208z" />
    <glyph glyph-name="p" unicode="p" horiz-adv-x="1149" 
d="M161 -358v1332h162l5 -159q52 78 134.5 127t191.5 49q120 0 207 -56.5t134.5 -168.5t47.5 -279q0 -165 -50.5 -277.5t-142.5 -170t-216 -57.5q-104 0 -182 41.5t-125 113.5v-495h-166zM603 119q133 0 200.5 95.5t67.5 272.5q0 179 -63 274t-185 95q-107 0 -180.5 -57
t-114.5 -133v-376q40 -76 108 -123.5t167 -47.5z" />
    <glyph glyph-name="thorn" unicode="&#xfe;" horiz-adv-x="1149" 
d="M161 -358v1704h167v-531q52 80 134.5 127.5t191.5 47.5q123 0 209.5 -57.5t133 -172t46.5 -283.5q0 -163 -50 -272.5t-141.5 -165t-217.5 -55.5q-104 0 -180.5 40t-126.5 113v-495h-166zM603 119q132 0 200 93.5t68 265.5q0 182 -64 279.5t-189 97.5q-106 0 -177.5 -56.5
t-112.5 -134.5v-374q39 -76 106.5 -123.5t168.5 -47.5z" />
    <glyph glyph-name="q" unicode="q" horiz-adv-x="1148" 
d="M821 -358v505q-52 -75 -134.5 -120t-191.5 -45q-121 0 -208.5 57t-134 171t-46.5 281q0 165 50.5 276t142 168t215.5 57q108 0 184 -46.5t123 -122.5l6 151h161v-1332h-167zM525 119q109 0 180.5 51.5t115.5 125.5v372q-41 79 -107 133t-168 55q-133 0 -202.5 -95.5
t-69.5 -269.5q0 -182 65.5 -277t185.5 -95z" />
    <glyph glyph-name="r" unicode="r" horiz-adv-x="685" 
d="M161 0v974h157l6 -166q41 76 114 127t190 51h20v-153h-23q-73 0 -128 -19t-96 -52.5t-73 -77.5v-684h-167z" />
    <glyph glyph-name="racute" unicode="&#x155;" horiz-adv-x="685" 
d="M161 0v974h157l6 -166q41 76 114 127t190 51h20v-153h-23q-73 0 -128 -19t-96 -52.5t-73 -77.5v-684h-167zM306 1110l203 269h194l-268 -269h-129z" />
    <glyph glyph-name="rcaron" unicode="&#x159;" horiz-adv-x="685" 
d="M161 0v974h157l6 -166q41 76 114 127t190 51h20v-153h-23q-73 0 -128 -19t-96 -52.5t-73 -77.5v-684h-167zM316 1110l-214 269h138l160 -172l158 172h139l-214 -269h-167z" />
    <glyph glyph-name="uni0157" unicode="&#x157;" horiz-adv-x="685" 
d="M161 0v974h157l6 -166q41 76 114 127t190 51h20v-153h-23q-73 0 -128 -19t-96 -52.5t-73 -77.5v-684h-167zM156 -382l-20 65q33 13 62.5 34t38.5 52q-38 4 -62 28.5t-24 58.5q0 36 26.5 60.5t72.5 24.5q44 0 74.5 -27.5t30.5 -80.5q0 -81 -59 -139t-140 -76z" />
    <glyph glyph-name="s" unicode="s" horiz-adv-x="995" 
d="M506 -18q-82 0 -155.5 18t-129.5 57t-87.5 102.5t-31.5 153.5h161q0 -114 70.5 -160.5t176.5 -46.5q95 0 156.5 36.5t61.5 120.5q0 72 -55.5 107t-195.5 68q-114 27 -192 62.5t-117 90t-39 137.5q0 65 27.5 114.5t77 82.5t116.5 49.5t145 16.5q77 0 144.5 -18t119 -56
t81.5 -98t30 -144h-162q0 104 -62 147t-151 43q-90 0 -146 -32t-56 -100q0 -39 25 -66t84 -48.5t159 -45.5q109 -26 183 -62t111.5 -92.5t37.5 -144.5q0 -76 -29.5 -131.5t-82 -91t-123 -52.5t-152.5 -17z" />
    <glyph glyph-name="sacute" unicode="&#x15b;" horiz-adv-x="995" 
d="M506 -18q-82 0 -155.5 18t-129.5 57t-87.5 102.5t-31.5 153.5h161q0 -114 70.5 -160.5t176.5 -46.5q95 0 156.5 36.5t61.5 120.5q0 72 -55.5 107t-195.5 68q-114 27 -192 62.5t-117 90t-39 137.5q0 65 27.5 114.5t77 82.5t116.5 49.5t145 16.5q77 0 144.5 -18t119 -56
t81.5 -98t30 -144h-162q0 104 -62 147t-151 43q-90 0 -146 -32t-56 -100q0 -39 25 -66t84 -48.5t159 -45.5q109 -26 183 -62t111.5 -92.5t37.5 -144.5q0 -76 -29.5 -131.5t-82 -91t-123 -52.5t-152.5 -17zM409 1110l203 269h194l-268 -269h-129z" />
    <glyph glyph-name="scaron" unicode="&#x161;" horiz-adv-x="995" 
d="M506 -18q-82 0 -155.5 18t-129.5 57t-87.5 102.5t-31.5 153.5h161q0 -114 70.5 -160.5t176.5 -46.5q95 0 156.5 36.5t61.5 120.5q0 72 -55.5 107t-195.5 68q-114 27 -192 62.5t-117 90t-39 137.5q0 65 27.5 114.5t77 82.5t116.5 49.5t145 16.5q77 0 144.5 -18t119 -56
t81.5 -98t30 -144h-162q0 104 -62 147t-151 43q-90 0 -146 -32t-56 -100q0 -39 25 -66t84 -48.5t159 -45.5q109 -26 183 -62t111.5 -92.5t37.5 -144.5q0 -76 -29.5 -131.5t-82 -91t-123 -52.5t-152.5 -17zM419 1110l-214 269h138l160 -172l158 172h139l-214 -269h-167z" />
    <glyph glyph-name="scedilla" unicode="&#x15f;" horiz-adv-x="995" 
d="M506 -18q-82 0 -155.5 18t-129.5 57t-87.5 102.5t-31.5 153.5h161q0 -114 70.5 -160.5t176.5 -46.5q95 0 156.5 36.5t61.5 120.5q0 72 -55.5 107t-195.5 68q-114 27 -192 62.5t-117 90t-39 137.5q0 65 27.5 114.5t77 82.5t116.5 49.5t145 16.5q77 0 144.5 -18t119 -56
t81.5 -98t30 -144h-162q0 104 -62 147t-151 43q-90 0 -146 -32t-56 -100q0 -39 25 -66t84 -48.5t159 -45.5q109 -26 183 -62t111.5 -92.5t37.5 -144.5q0 -76 -29.5 -131.5t-82 -91t-123 -52.5t-152.5 -17zM487 -382q-57 0 -100 9.5t-81 24.5l27 93q26 -12 66.5 -20.5
t81.5 -8.5q36 0 61 17t25 48q0 35 -32 52.5t-111 26.5l-44 5l132 177l81 -37l-68 -93l-30 23q94 -4 145.5 -42t51.5 -109q0 -55 -27 -92t-73 -55.5t-105 -18.5z" />
    <glyph glyph-name="scircumflex" unicode="&#x15d;" horiz-adv-x="995" 
d="M506 -18q-82 0 -155.5 18t-129.5 57t-87.5 102.5t-31.5 153.5h161q0 -114 70.5 -160.5t176.5 -46.5q95 0 156.5 36.5t61.5 120.5q0 72 -55.5 107t-195.5 68q-114 27 -192 62.5t-117 90t-39 137.5q0 65 27.5 114.5t77 82.5t116.5 49.5t145 16.5q77 0 144.5 -18t119 -56
t81.5 -98t30 -144h-162q0 104 -62 147t-151 43q-90 0 -146 -32t-56 -100q0 -39 25 -66t84 -48.5t159 -45.5q109 -26 183 -62t111.5 -92.5t37.5 -144.5q0 -76 -29.5 -131.5t-82 -91t-123 -52.5t-152.5 -17zM207 1110l214 269h167l214 -269h-139l-158 172l-160 -172h-138z" />
    <glyph glyph-name="uni0219" unicode="&#x219;" horiz-adv-x="995" 
d="M506 -18q-82 0 -155.5 18t-129.5 57t-87.5 102.5t-31.5 153.5h161q0 -114 70.5 -160.5t176.5 -46.5q95 0 156.5 36.5t61.5 120.5q0 72 -55.5 107t-195.5 68q-114 27 -192 62.5t-117 90t-39 137.5q0 65 27.5 114.5t77 82.5t116.5 49.5t145 16.5q77 0 144.5 -18t119 -56
t81.5 -98t30 -144h-162q0 104 -62 147t-151 43q-90 0 -146 -32t-56 -100q0 -39 25 -66t84 -48.5t159 -45.5q109 -26 183 -62t111.5 -92.5t37.5 -144.5q0 -76 -29.5 -131.5t-82 -91t-123 -52.5t-152.5 -17zM425 -382l-20 65q33 13 62.5 34t38.5 52q-38 4 -62 28.5t-24 58.5
q0 36 26.5 60.5t72.5 24.5q44 0 74.5 -27.5t30.5 -80.5q0 -81 -59 -139t-140 -76z" />
    <glyph glyph-name="uni1E63" unicode="&#x1e63;" horiz-adv-x="995" 
d="M506 -18q-82 0 -155.5 18t-129.5 57t-87.5 102.5t-31.5 153.5h161q0 -114 70.5 -160.5t176.5 -46.5q95 0 156.5 36.5t61.5 120.5q0 72 -55.5 107t-195.5 68q-114 27 -192 62.5t-117 90t-39 137.5q0 65 27.5 114.5t77 82.5t116.5 49.5t145 16.5q77 0 144.5 -18t119 -56
t81.5 -98t30 -144h-162q0 104 -62 147t-151 43q-90 0 -146 -32t-56 -100q0 -39 25 -66t84 -48.5t159 -45.5q109 -26 183 -62t111.5 -92.5t37.5 -144.5q0 -76 -29.5 -131.5t-82 -91t-123 -52.5t-152.5 -17zM513 -291q-47 0 -76 27.5t-29 69.5t29 69.5t76 27.5t76 -27.5
t29 -69.5t-29 -69.5t-76 -27.5z" />
    <glyph glyph-name="germandbls" unicode="&#xdf;" horiz-adv-x="1107" 
d="M577 -12q-39 0 -71.5 3t-64.5 9v137q31 -8 60 -12t61 -4q145 0 218 68.5t73 189.5q0 144 -92 204.5t-239 60.5h-81v126h82q115 0 189.5 60.5t74.5 180.5q0 104 -58 161.5t-164 57.5q-113 0 -181 -74.5t-68 -239.5v-916h-166v913q0 150 50.5 250t144 150.5t220.5 50.5
q116 0 202.5 -41.5t134 -118t47.5 -181.5q0 -95 -38 -166t-112.5 -114t-182.5 -58l-93 85q160 0 271 -47t169.5 -135t58.5 -211q0 -132 -58.5 -218.5t-159.5 -128.5t-227 -42z" />
    <glyph glyph-name="longs" unicode="&#x17f;" horiz-adv-x="558" 
d="M195 0v838h-163v136h163v56q0 100 23.5 170.5t86 108t181.5 37.5h101v-131h-90q-89 0 -112.5 -48t-23.5 -139v-1028h-166z" />
    <glyph glyph-name="t" unicode="t" horiz-adv-x="662" 
d="M486 0q-118 0 -181 37.5t-86.5 108t-23.5 169.5v524h-163v135h163v223h166v-223h240v-135h-240v-516q0 -91 23.5 -139.5t112.5 -48.5h106v-135h-117z" />
    <glyph glyph-name="tbar" unicode="&#x167;" horiz-adv-x="662" 
d="M32 460v107h569v-107h-569zM486 0q-118 0 -181 37.5t-86.5 108t-23.5 169.5v524h-163v135h163v223h166v-223h240v-135h-240v-516q0 -91 23.5 -139.5t112.5 -48.5h106v-135h-117z" />
    <glyph glyph-name="tcaron" unicode="&#x165;" horiz-adv-x="662" 
d="M486 0q-118 0 -181 37.5t-86.5 108t-23.5 169.5v524h-163v135h163v223h166v-223h240v-135h-240v-516q0 -91 23.5 -139.5t112.5 -48.5h106v-135h-117zM455 1061l66 318h166l-120 -318h-112z" />
    <glyph glyph-name="uni0163" unicode="&#x163;" horiz-adv-x="662" 
d="M486 0q-118 0 -181 37.5t-86.5 108t-23.5 169.5v524h-163v135h163v223h166v-223h240v-135h-240v-516q0 -91 23.5 -139.5t112.5 -48.5h106v-135h-117zM334 -382q-57 0 -100 9.5t-81 24.5l27 93q26 -12 66.5 -20.5t81.5 -8.5q36 0 61 17t25 48q0 35 -32 52.5t-111 26.5
l-44 5l132 177l81 -37l-68 -93l-30 23q94 -4 145.5 -42t51.5 -109q0 -55 -27 -92t-73 -55.5t-105 -18.5z" />
    <glyph glyph-name="uni021B" unicode="&#x21b;" horiz-adv-x="662" 
d="M486 0q-118 0 -181 37.5t-86.5 108t-23.5 169.5v524h-163v135h163v223h166v-223h240v-135h-240v-516q0 -91 23.5 -139.5t112.5 -48.5h106v-135h-117zM297 -382l-20 65q33 13 62.5 34t38.5 52q-38 4 -62 28.5t-24 58.5q0 36 26.5 60.5t72.5 24.5q44 0 74.5 -27.5
t30.5 -80.5q0 -81 -59 -139t-140 -76z" />
    <glyph glyph-name="u" unicode="u" horiz-adv-x="1144" 
d="M470 -15q-169 0 -244 94t-75 259v636h168v-613q0 -66 15 -118t57 -81t121 -29q110 0 184 45.5t119 105.5v690h168v-974h-161l-5 150q-47 -58 -132.5 -111.5t-214.5 -53.5z" />
    <glyph glyph-name="uacute" unicode="&#xfa;" horiz-adv-x="1144" 
d="M470 -15q-169 0 -244 94t-75 259v636h168v-613q0 -66 15 -118t57 -81t121 -29q110 0 184 45.5t119 105.5v690h168v-974h-161l-5 150q-47 -58 -132.5 -111.5t-214.5 -53.5zM473 1110l203 269h194l-268 -269h-129z" />
    <glyph glyph-name="ubreve" unicode="&#x16d;" horiz-adv-x="1144" 
d="M470 -15q-169 0 -244 94t-75 259v636h168v-613q0 -66 15 -118t57 -81t121 -29q110 0 184 45.5t119 105.5v690h168v-974h-161l-5 150q-47 -58 -132.5 -111.5t-214.5 -53.5zM565 1118q-114 0 -183 66.5t-83 185.5h103q10 -77 57.5 -110t105.5 -33q60 0 110 34t59 109h97
q-12 -117 -81.5 -184.5t-184.5 -67.5z" />
    <glyph glyph-name="ucircumflex" unicode="&#xfb;" horiz-adv-x="1144" 
d="M470 -15q-169 0 -244 94t-75 259v636h168v-613q0 -66 15 -118t57 -81t121 -29q110 0 184 45.5t119 105.5v690h168v-974h-161l-5 150q-47 -58 -132.5 -111.5t-214.5 -53.5zM271 1110l214 269h167l214 -269h-139l-158 172l-160 -172h-138z" />
    <glyph glyph-name="udieresis" unicode="&#xfc;" horiz-adv-x="1144" 
d="M470 -15q-169 0 -244 94t-75 259v636h168v-613q0 -66 15 -118t57 -81t121 -29q110 0 184 45.5t119 105.5v690h168v-974h-161l-5 150q-47 -58 -132.5 -111.5t-214.5 -53.5zM743 1164q-40 0 -66.5 25t-26.5 65q0 39 26.5 64.5t66.5 25.5t67 -25.5t27 -64.5q0 -40 -27 -65
t-67 -25zM391 1164q-39 0 -66.5 25t-27.5 65q0 39 27.5 64.5t66.5 25.5q40 0 67 -25.5t27 -64.5q0 -40 -27 -65t-67 -25z" />
    <glyph glyph-name="uni1EE5" unicode="&#x1ee5;" horiz-adv-x="1144" 
d="M470 -15q-169 0 -244 94t-75 259v636h168v-613q0 -66 15 -118t57 -81t121 -29q110 0 184 45.5t119 105.5v690h168v-974h-161l-5 150q-47 -58 -132.5 -111.5t-214.5 -53.5zM571 -291q-47 0 -76 27.5t-29 69.5t29 69.5t76 27.5t76 -27.5t29 -69.5t-29 -69.5t-76 -27.5z" />
    <glyph glyph-name="ugrave" unicode="&#xf9;" horiz-adv-x="1144" 
d="M470 -15q-169 0 -244 94t-75 259v636h168v-613q0 -66 15 -118t57 -81t121 -29q110 0 184 45.5t119 105.5v690h168v-974h-161l-5 150q-47 -58 -132.5 -111.5t-214.5 -53.5zM531 1110l-267 269h192l204 -269h-129z" />
    <glyph glyph-name="uni1EE7" unicode="&#x1ee7;" horiz-adv-x="1144" 
d="M470 -15q-169 0 -244 94t-75 259v636h168v-613q0 -66 15 -118t57 -81t121 -29q110 0 184 45.5t119 105.5v690h168v-974h-161l-5 150q-47 -58 -132.5 -111.5t-214.5 -53.5zM517 1133l-42 61q35 10 63.5 34t28.5 59q0 37 -25.5 49.5t-74.5 12.5h-13v102h33q118 0 177 -35.5
t59 -110.5q0 -47 -26 -83.5t-72 -58.5t-108 -30zM475 1194l112 -12v-94h-112v106z" />
    <glyph glyph-name="uhorn" unicode="&#x1b0;" horiz-adv-x="1225" 
d="M965 697l-6 97q85 32 134.5 77.5t56.5 109.5l10 -8q-51 0 -85 32t-34 82q0 51 33.5 83t85.5 32q56 0 90.5 -36.5t34.5 -111.5q0 -63 -21.5 -117.5t-62.5 -99t-100.5 -79.5t-135.5 -61zM470 -15q-169 0 -244 94t-75 259v636h168v-613q0 -66 15 -118t57 -81t121 -29
q110 0 184 45.5t119 105.5v690h168v-974h-161l-5 150q-47 -58 -132.5 -111.5t-214.5 -53.5z" />
    <glyph glyph-name="uni1EE9" unicode="&#x1ee9;" horiz-adv-x="1225" 
d="M965 697l-6 97q85 32 134.5 77.5t56.5 109.5l10 -8q-51 0 -85 32t-34 82q0 51 33.5 83t85.5 32q56 0 90.5 -36.5t34.5 -111.5q0 -63 -21.5 -117.5t-62.5 -99t-100.5 -79.5t-135.5 -61zM470 -15q-169 0 -244 94t-75 259v636h168v-613q0 -66 15 -118t57 -81t121 -29
q110 0 184 45.5t119 105.5v690h168v-974h-161l-5 150q-47 -58 -132.5 -111.5t-214.5 -53.5zM473 1110l203 269h194l-268 -269h-129z" />
    <glyph glyph-name="uni1EF1" unicode="&#x1ef1;" horiz-adv-x="1225" 
d="M965 697l-6 97q85 32 134.5 77.5t56.5 109.5l10 -8q-51 0 -85 32t-34 82q0 51 33.5 83t85.5 32q56 0 90.5 -36.5t34.5 -111.5q0 -63 -21.5 -117.5t-62.5 -99t-100.5 -79.5t-135.5 -61zM470 -15q-169 0 -244 94t-75 259v636h168v-613q0 -66 15 -118t57 -81t121 -29
q110 0 184 45.5t119 105.5v690h168v-974h-161l-5 150q-47 -58 -132.5 -111.5t-214.5 -53.5zM571 -291q-47 0 -76 27.5t-29 69.5t29 69.5t76 27.5t76 -27.5t29 -69.5t-29 -69.5t-76 -27.5z" />
    <glyph glyph-name="uni1EEB" unicode="&#x1eeb;" horiz-adv-x="1225" 
d="M965 697l-6 97q85 32 134.5 77.5t56.5 109.5l10 -8q-51 0 -85 32t-34 82q0 51 33.5 83t85.5 32q56 0 90.5 -36.5t34.5 -111.5q0 -63 -21.5 -117.5t-62.5 -99t-100.5 -79.5t-135.5 -61zM470 -15q-169 0 -244 94t-75 259v636h168v-613q0 -66 15 -118t57 -81t121 -29
q110 0 184 45.5t119 105.5v690h168v-974h-161l-5 150q-47 -58 -132.5 -111.5t-214.5 -53.5zM531 1110l-267 269h192l204 -269h-129z" />
    <glyph glyph-name="uni1EED" unicode="&#x1eed;" horiz-adv-x="1225" 
d="M965 697l-6 97q85 32 134.5 77.5t56.5 109.5l10 -8q-51 0 -85 32t-34 82q0 51 33.5 83t85.5 32q56 0 90.5 -36.5t34.5 -111.5q0 -63 -21.5 -117.5t-62.5 -99t-100.5 -79.5t-135.5 -61zM470 -15q-169 0 -244 94t-75 259v636h168v-613q0 -66 15 -118t57 -81t121 -29
q110 0 184 45.5t119 105.5v690h168v-974h-161l-5 150q-47 -58 -132.5 -111.5t-214.5 -53.5zM517 1133l-42 61q35 10 63.5 34t28.5 59q0 37 -25.5 49.5t-74.5 12.5h-13v102h33q118 0 177 -35.5t59 -110.5q0 -47 -26 -83.5t-72 -58.5t-108 -30zM475 1194l112 -12v-94h-112v106
z" />
    <glyph glyph-name="uni1EEF" unicode="&#x1eef;" horiz-adv-x="1225" 
d="M965 697l-6 97q85 32 134.5 77.5t56.5 109.5l10 -8q-51 0 -85 32t-34 82q0 51 33.5 83t85.5 32q56 0 90.5 -36.5t34.5 -111.5q0 -63 -21.5 -117.5t-62.5 -99t-100.5 -79.5t-135.5 -61zM470 -15q-169 0 -244 94t-75 259v636h168v-613q0 -66 15 -118t57 -81t121 -29
q110 0 184 45.5t119 105.5v690h168v-974h-161l-5 150q-47 -58 -132.5 -111.5t-214.5 -53.5zM276 1138q10 92 47.5 146t112.5 54q41 0 80.5 -14t76.5 -31q33 -14 59.5 -23t48.5 -9q24 0 40 20t20 62h98q-10 -89 -45.5 -141.5t-109.5 -52.5q-44 0 -83 13.5t-74 28.5
q-34 15 -60 24.5t-49 9.5q-27 0 -43 -21t-21 -66h-98z" />
    <glyph glyph-name="uhungarumlaut" unicode="&#x171;" horiz-adv-x="1144" 
d="M470 -15q-169 0 -244 94t-75 259v636h168v-613q0 -66 15 -118t57 -81t121 -29q110 0 184 45.5t119 105.5v690h168v-974h-161l-5 150q-47 -58 -132.5 -111.5t-214.5 -53.5zM607 1110l175 269h172l-227 -269h-120zM321 1110l175 269h171l-227 -269h-119z" />
    <glyph glyph-name="umacron" unicode="&#x16b;" horiz-adv-x="1144" 
d="M470 -15q-169 0 -244 94t-75 259v636h168v-613q0 -66 15 -118t57 -81t121 -29q110 0 184 45.5t119 105.5v690h168v-974h-161l-5 150q-47 -58 -132.5 -111.5t-214.5 -53.5zM295 1178v123h545v-123h-545z" />
    <glyph glyph-name="uogonek" unicode="&#x173;" horiz-adv-x="1144" 
d="M470 -15q-169 0 -244 94t-75 259v636h168v-613q0 -66 15 -118t57 -81t121 -29q110 0 184 45.5t119 105.5v690h168v-974h-161l-5 150q-47 -58 -132.5 -111.5t-214.5 -53.5zM826 -375q-76 0 -129.5 43t-53.5 119q0 51 31.5 101t85 89.5t118.5 56.5l63 -18
q-88 -57 -122 -109.5t-34 -94.5q0 -35 20.5 -53.5t51.5 -18.5q34 0 63.5 8.5t61.5 22.5v-111q-29 -16 -63.5 -25.5t-92.5 -9.5z" />
    <glyph glyph-name="uring" unicode="&#x16f;" horiz-adv-x="1144" 
d="M470 -15q-169 0 -244 94t-75 259v636h168v-613q0 -66 15 -118t57 -81t121 -29q110 0 184 45.5t119 105.5v690h168v-974h-161l-5 150q-47 -58 -132.5 -111.5t-214.5 -53.5zM567 1079q-92 0 -150 55.5t-58 147.5q0 90 58 145.5t150 55.5t150 -55.5t58 -145.5
q0 -92 -58 -147.5t-150 -55.5zM567 1174q47 0 76 30t29 78q0 47 -29 77.5t-76 30.5q-46 0 -75 -30.5t-29 -77.5q0 -48 29 -78t75 -30z" />
    <glyph glyph-name="utilde" unicode="&#x169;" horiz-adv-x="1144" 
d="M470 -15q-169 0 -244 94t-75 259v636h168v-613q0 -66 15 -118t57 -81t121 -29q110 0 184 45.5t119 105.5v690h168v-974h-161l-5 150q-47 -58 -132.5 -111.5t-214.5 -53.5zM276 1138q10 92 47.5 146t112.5 54q41 0 80.5 -14t76.5 -31q33 -14 59.5 -23t48.5 -9q24 0 40 20
t20 62h98q-10 -89 -45.5 -141.5t-109.5 -52.5q-44 0 -83 13.5t-74 28.5q-34 15 -60 24.5t-49 9.5q-27 0 -43 -21t-21 -66h-98z" />
    <glyph glyph-name="v" unicode="v" horiz-adv-x="926" 
d="M374 0l-374 974h177l288 -810l291 810h170l-368 -974h-184z" />
    <glyph glyph-name="uni028B" unicode="&#x28b;" horiz-adv-x="1172" 
d="M570 -10q-147 0 -239.5 48t-136 137.5t-43.5 214.5v584h167v-560q0 -81 20.5 -144t74.5 -98t156 -35q116 0 177.5 32.5t84 95t22.5 150.5h168q0 -138 -50 -233t-150 -143.5t-251 -48.5zM853 415v248q0 91 -23 139t-112 48h-40v135h51q119 0 182 -37t86.5 -107.5
t23.5 -169.5v-256h-168z" />
    <glyph glyph-name="w" unicode="w" horiz-adv-x="1476" 
d="M322 0l-311 974h174l231 -786l233 786h185l237 -785l229 785h164l-311 -974h-176l-239 793l-238 -793h-178z" />
    <glyph glyph-name="wacute" unicode="&#x1e83;" horiz-adv-x="1476" 
d="M322 0l-311 974h174l231 -786l233 786h185l237 -785l229 785h164l-311 -974h-176l-239 793l-238 -793h-178zM648 1110l203 269h194l-268 -269h-129z" />
    <glyph glyph-name="wcircumflex" unicode="&#x175;" horiz-adv-x="1476" 
d="M322 0l-311 974h174l231 -786l233 786h185l237 -785l229 785h164l-311 -974h-176l-239 793l-238 -793h-178zM446 1110l214 269h167l214 -269h-139l-158 172l-160 -172h-138z" />
    <glyph glyph-name="wdieresis" unicode="&#x1e85;" horiz-adv-x="1476" 
d="M322 0l-311 974h174l231 -786l233 786h185l237 -785l229 785h164l-311 -974h-176l-239 793l-238 -793h-178zM918 1164q-40 0 -66.5 25t-26.5 65q0 39 26.5 64.5t66.5 25.5t67 -25.5t27 -64.5q0 -40 -27 -65t-67 -25zM566 1164q-39 0 -66.5 25t-27.5 65q0 39 27.5 64.5
t66.5 25.5q40 0 67 -25.5t27 -64.5q0 -40 -27 -65t-67 -25z" />
    <glyph glyph-name="wgrave" unicode="&#x1e81;" horiz-adv-x="1476" 
d="M322 0l-311 974h174l231 -786l233 786h185l237 -785l229 785h164l-311 -974h-176l-239 793l-238 -793h-178zM706 1110l-267 269h192l204 -269h-129z" />
    <glyph glyph-name="x" unicode="x" horiz-adv-x="906" 
d="M9 0l358 529l71 55l248 390h179l-334 -490l-64 -53l-281 -431h-177zM719 0l-282 431l-66 52l-330 491h179l247 -390l67 -49l363 -535h-178z" />
    <glyph glyph-name="y" unicode="y" horiz-adv-x="926" 
d="M105 -358v138h82q57 0 96.5 30.5t67.5 101.5l38 88l-389 974h177l301 -797l278 797h170l-366 -974l-46 -118q-34 -87 -72.5 -140t-94.5 -76.5t-143 -23.5h-99z" />
    <glyph glyph-name="yacute" unicode="&#xfd;" horiz-adv-x="926" 
d="M105 -358v138h82q57 0 96.5 30.5t67.5 101.5l38 88l-389 974h177l301 -797l278 797h170l-366 -974l-46 -118q-34 -87 -72.5 -140t-94.5 -76.5t-143 -23.5h-99zM372 1110l203 269h194l-268 -269h-129z" />
    <glyph glyph-name="ycircumflex" unicode="&#x177;" horiz-adv-x="926" 
d="M105 -358v138h82q57 0 96.5 30.5t67.5 101.5l38 88l-389 974h177l301 -797l278 797h170l-366 -974l-46 -118q-34 -87 -72.5 -140t-94.5 -76.5t-143 -23.5h-99zM170 1110l214 269h167l214 -269h-139l-158 172l-160 -172h-138z" />
    <glyph glyph-name="ydieresis" unicode="&#xff;" horiz-adv-x="926" 
d="M105 -358v138h82q57 0 96.5 30.5t67.5 101.5l38 88l-389 974h177l301 -797l278 797h170l-366 -974l-46 -118q-34 -87 -72.5 -140t-94.5 -76.5t-143 -23.5h-99zM642 1164q-40 0 -66.5 25t-26.5 65q0 39 26.5 64.5t66.5 25.5t67 -25.5t27 -64.5q0 -40 -27 -65t-67 -25z
M290 1164q-39 0 -66.5 25t-27.5 65q0 39 27.5 64.5t66.5 25.5q40 0 67 -25.5t27 -64.5q0 -40 -27 -65t-67 -25z" />
    <glyph glyph-name="uni1EF5" unicode="&#x1ef5;" horiz-adv-x="926" 
d="M105 -358v138h82q57 0 96.5 30.5t67.5 101.5l38 88l-389 974h177l301 -797l278 797h170l-366 -974l-46 -118q-34 -87 -72.5 -140t-94.5 -76.5t-143 -23.5h-99zM734 -286q-47 0 -76 27.5t-29 69.5t29 69.5t76 27.5t76 -27.5t29 -69.5t-29 -69.5t-76 -27.5z" />
    <glyph glyph-name="ygrave" unicode="&#x1ef3;" horiz-adv-x="926" 
d="M105 -358v138h82q57 0 96.5 30.5t67.5 101.5l38 88l-389 974h177l301 -797l278 797h170l-366 -974l-46 -118q-34 -87 -72.5 -140t-94.5 -76.5t-143 -23.5h-99zM430 1110l-267 269h192l204 -269h-129z" />
    <glyph glyph-name="uni01B4" unicode="&#x1b4;" horiz-adv-x="1150" 
d="M109 -358v138h83q58 0 94.5 30.5t64.5 101.5l38 88l-389 974h177l301 -791l314 895q32 90 71.5 142t96 73.5t136.5 21.5h54v-139h-37q-57 0 -97 -31t-69 -107l-430 -1161q-33 -85 -71 -136.5t-94 -75t-143 -23.5h-100z" />
    <glyph glyph-name="uni1EF7" unicode="&#x1ef7;" horiz-adv-x="926" 
d="M105 -358v138h82q57 0 96.5 30.5t67.5 101.5l38 88l-389 974h177l301 -797l278 797h170l-366 -974l-46 -118q-34 -87 -72.5 -140t-94.5 -76.5t-143 -23.5h-99zM416 1133l-42 61q35 10 63.5 34t28.5 59q0 37 -25.5 49.5t-74.5 12.5h-13v102h33q118 0 177 -35.5t59 -110.5
q0 -47 -26 -83.5t-72 -58.5t-108 -30zM374 1194l112 -12v-94h-112v106z" />
    <glyph glyph-name="uni0233" unicode="&#x233;" horiz-adv-x="926" 
d="M105 -358v138h82q57 0 96.5 30.5t67.5 101.5l38 88l-389 974h177l301 -797l278 797h170l-366 -974l-46 -118q-34 -87 -72.5 -140t-94.5 -76.5t-143 -23.5h-99zM194 1178v123h545v-123h-545z" />
    <glyph glyph-name="uni1EF9" unicode="&#x1ef9;" horiz-adv-x="926" 
d="M105 -358v138h82q57 0 96.5 30.5t67.5 101.5l38 88l-389 974h177l301 -797l278 797h170l-366 -974l-46 -118q-34 -87 -72.5 -140t-94.5 -76.5t-143 -23.5h-99zM175 1138q10 92 47.5 146t112.5 54q41 0 80.5 -14t76.5 -31q33 -14 59.5 -23t48.5 -9q24 0 40 20t20 62h98
q-10 -89 -45.5 -141.5t-109.5 -52.5q-44 0 -83 13.5t-74 28.5q-34 15 -60 24.5t-49 9.5q-27 0 -43 -21t-21 -66h-98z" />
    <glyph glyph-name="z" unicode="z" horiz-adv-x="897" 
d="M68 0v128l533 711h-491v135h690v-119l-538 -720h567v-135h-761z" />
    <glyph glyph-name="zacute" unicode="&#x17a;" horiz-adv-x="897" 
d="M68 0v128l533 711h-491v135h690v-119l-538 -720h567v-135h-761zM361 1110l203 269h194l-268 -269h-129z" />
    <glyph glyph-name="zcaron" unicode="&#x17e;" horiz-adv-x="897" 
d="M68 0v128l533 711h-491v135h690v-119l-538 -720h567v-135h-761zM371 1110l-214 269h138l160 -172l158 172h139l-214 -269h-167z" />
    <glyph glyph-name="zdotaccent" unicode="&#x17c;" horiz-adv-x="897" 
d="M68 0v128l533 711h-491v135h690v-119l-538 -720h567v-135h-761zM455 1157q-47 0 -76 27.5t-29 69.5t29 69.5t76 27.5t76 -27.5t29 -69.5t-29 -69.5t-76 -27.5z" />
    <glyph glyph-name="a.ss02" horiz-adv-x="1150" 
d="M495 -19q-121 0 -208.5 56.5t-134 168.5t-46.5 278q0 167 50 279t141.5 169.5t216.5 57.5q109 0 185.5 -45t122.5 -120v149h167v-974h-158l-9 147q-52 -75 -134.5 -120.5t-192.5 -45.5zM526 117q109 0 181 52.5t115 126.5v377q-40 79 -107.5 129.5t-168.5 50.5
q-131 0 -199.5 -96.5t-68.5 -272.5q0 -179 64 -273t184 -94z" />
    <glyph glyph-name="aacute.aalt" horiz-adv-x="1150" 
d="M495 -19q-121 0 -208.5 56.5t-134 168.5t-46.5 278q0 167 50 279t141.5 169.5t216.5 57.5q109 0 185.5 -45t122.5 -120v149h167v-974h-158l-9 147q-52 -75 -134.5 -120.5t-192.5 -45.5zM526 117q109 0 181 52.5t115 126.5v377q-40 79 -107.5 129.5t-168.5 50.5
q-131 0 -199.5 -96.5t-68.5 -272.5q0 -179 64 -273t184 -94zM482 1110l203 269h194l-268 -269h-129z" />
    <glyph glyph-name="abreve.aalt" horiz-adv-x="1150" 
d="M495 -19q-121 0 -208.5 56.5t-134 168.5t-46.5 278q0 167 50 279t141.5 169.5t216.5 57.5q109 0 185.5 -45t122.5 -120v149h167v-974h-158l-9 147q-52 -75 -134.5 -120.5t-192.5 -45.5zM526 117q109 0 181 52.5t115 126.5v377q-40 79 -107.5 129.5t-168.5 50.5
q-131 0 -199.5 -96.5t-68.5 -272.5q0 -179 64 -273t184 -94zM574 1118q-114 0 -183 66.5t-83 185.5h103q10 -77 57.5 -110t105.5 -33q60 0 110 34t59 109h97q-12 -117 -81.5 -184.5t-184.5 -67.5z" />
    <glyph glyph-name="uni1EAF.aalt" horiz-adv-x="1150" 
d="M495 -19q-121 0 -208.5 56.5t-134 168.5t-46.5 278q0 167 50 279t141.5 169.5t216.5 57.5q109 0 185.5 -45t122.5 -120v149h167v-974h-158l-9 147q-52 -75 -134.5 -120.5t-192.5 -45.5zM526 117q109 0 181 52.5t115 126.5v377q-40 79 -107.5 129.5t-168.5 50.5
q-131 0 -199.5 -96.5t-68.5 -272.5q0 -179 64 -273t184 -94zM574 1115q-123 0 -195 66.5t-87 185.5h96q7 -51 34.5 -82.5t67.5 -46t84 -14.5q45 0 86.5 15t70 46.5t35.5 81.5h94q-14 -117 -87.5 -184.5t-198.5 -67.5zM510 1367l131 269h169l-201 -269h-99z" />
    <glyph glyph-name="uni1EB7.aalt" horiz-adv-x="1150" 
d="M495 -19q-121 0 -208.5 56.5t-134 168.5t-46.5 278q0 167 50 279t141.5 169.5t216.5 57.5q109 0 185.5 -45t122.5 -120v149h167v-974h-158l-9 147q-52 -75 -134.5 -120.5t-192.5 -45.5zM526 117q109 0 181 52.5t115 126.5v377q-40 79 -107.5 129.5t-168.5 50.5
q-131 0 -199.5 -96.5t-68.5 -272.5q0 -179 64 -273t184 -94zM576 -291q-47 0 -76 27.5t-29 69.5t29 69.5t76 27.5t76 -27.5t29 -69.5t-29 -69.5t-76 -27.5zM574 1118q-114 0 -183 66.5t-83 185.5h103q10 -77 57.5 -110t105.5 -33q60 0 110 34t59 109h97
q-12 -117 -81.5 -184.5t-184.5 -67.5z" />
    <glyph glyph-name="uni1EB1.aalt" horiz-adv-x="1150" 
d="M495 -19q-121 0 -208.5 56.5t-134 168.5t-46.5 278q0 167 50 279t141.5 169.5t216.5 57.5q109 0 185.5 -45t122.5 -120v149h167v-974h-158l-9 147q-52 -75 -134.5 -120.5t-192.5 -45.5zM526 117q109 0 181 52.5t115 126.5v377q-40 79 -107.5 129.5t-168.5 50.5
q-131 0 -199.5 -96.5t-68.5 -272.5q0 -179 64 -273t184 -94zM574 1115q-123 0 -195 66.5t-87 185.5h96q7 -51 34.5 -82.5t67.5 -46t84 -14.5q45 0 86.5 15t70 46.5t35.5 81.5h94q-14 -117 -87.5 -184.5t-198.5 -67.5zM634 1367h-99l-201 269h168z" />
    <glyph glyph-name="uni1EB5.aalt" horiz-adv-x="1150" 
d="M495 -19q-121 0 -208.5 56.5t-134 168.5t-46.5 278q0 167 50 279t141.5 169.5t216.5 57.5q109 0 185.5 -45t122.5 -120v149h167v-974h-158l-9 147q-52 -75 -134.5 -120.5t-192.5 -45.5zM526 117q109 0 181 52.5t115 126.5v377q-40 79 -107.5 129.5t-168.5 50.5
q-131 0 -199.5 -96.5t-68.5 -272.5q0 -179 64 -273t184 -94zM574 1115q-123 0 -195 66.5t-87 185.5h101q7 -51 33.5 -82.5t65.5 -46t82 -14.5q44 0 84.5 15t68 46.5t34.5 81.5h99q-14 -117 -87.5 -184.5t-198.5 -67.5zM272 1447q11 89 54 142t127 53q41 0 80 -14t76 -30
q34 -15 60 -24t48 -9q33 0 54 20t26 62h98q-10 -86 -50.5 -137.5t-123.5 -51.5q-44 0 -83 13.5t-74 28.5t-61 24.5t-48 9.5q-35 0 -57 -21t-28 -66h-98z" />
    <glyph glyph-name="acircumflex.aalt" horiz-adv-x="1150" 
d="M495 -19q-121 0 -208.5 56.5t-134 168.5t-46.5 278q0 167 50 279t141.5 169.5t216.5 57.5q109 0 185.5 -45t122.5 -120v149h167v-974h-158l-9 147q-52 -75 -134.5 -120.5t-192.5 -45.5zM526 117q109 0 181 52.5t115 126.5v377q-40 79 -107.5 129.5t-168.5 50.5
q-131 0 -199.5 -96.5t-68.5 -272.5q0 -179 64 -273t184 -94zM280 1110l214 269h167l214 -269h-139l-158 172l-160 -172h-138z" />
    <glyph glyph-name="uni1EA5.aalt" horiz-adv-x="1150" 
d="M495 -19q-121 0 -208.5 56.5t-134 168.5t-46.5 278q0 167 50 279t141.5 169.5t216.5 57.5q109 0 185.5 -45t122.5 -120v149h167v-974h-158l-9 147q-52 -75 -134.5 -120.5t-192.5 -45.5zM526 117q109 0 181 52.5t115 126.5v377q-40 79 -107.5 129.5t-168.5 50.5
q-131 0 -199.5 -96.5t-68.5 -272.5q0 -179 64 -273t184 -94zM267 1107l214 269h167l214 -269h-138l-158 172l-160 -172h-139zM758 1275l163 269h183l-226 -269h-120z" />
    <glyph glyph-name="uni1EAD.aalt" horiz-adv-x="1150" 
d="M495 -19q-121 0 -208.5 56.5t-134 168.5t-46.5 278q0 167 50 279t141.5 169.5t216.5 57.5q109 0 185.5 -45t122.5 -120v149h167v-974h-158l-9 147q-52 -75 -134.5 -120.5t-192.5 -45.5zM526 117q109 0 181 52.5t115 126.5v377q-40 79 -107.5 129.5t-168.5 50.5
q-131 0 -199.5 -96.5t-68.5 -272.5q0 -179 64 -273t184 -94zM576 -291q-47 0 -76 27.5t-29 69.5t29 69.5t76 27.5t76 -27.5t29 -69.5t-29 -69.5t-76 -27.5zM280 1110l214 269h167l214 -269h-139l-158 172l-160 -172h-138z" />
    <glyph glyph-name="uni1EA7.aalt" horiz-adv-x="1150" 
d="M495 -19q-121 0 -208.5 56.5t-134 168.5t-46.5 278q0 167 50 279t141.5 169.5t216.5 57.5q109 0 185.5 -45t122.5 -120v149h167v-974h-158l-9 147q-52 -75 -134.5 -120.5t-192.5 -45.5zM526 117q109 0 181 52.5t115 126.5v377q-40 79 -107.5 129.5t-168.5 50.5
q-131 0 -199.5 -96.5t-68.5 -272.5q0 -179 64 -273t184 -94zM263 1107l214 269h167l214 -269h-138l-158 172l-160 -172h-139zM364 1275h-119l-227 269h185z" />
    <glyph glyph-name="uni1EAB.aalt" horiz-adv-x="1150" 
d="M495 -19q-121 0 -208.5 56.5t-134 168.5t-46.5 278q0 167 50 279t141.5 169.5t216.5 57.5q109 0 185.5 -45t122.5 -120v149h167v-974h-158l-9 147q-52 -75 -134.5 -120.5t-192.5 -45.5zM526 117q109 0 181 52.5t115 126.5v377q-40 79 -107.5 129.5t-168.5 50.5
q-131 0 -199.5 -96.5t-68.5 -272.5q0 -179 64 -273t184 -94zM263 1107l214 269h167l214 -269h-138l-158 172l-160 -172h-139zM252 1447q11 92 53.5 146t127.5 54q40 0 79.5 -14t76.5 -30q33 -15 59 -24t49 -9q33 0 53.5 20t26.5 62h98q-11 -89 -51.5 -141.5t-123.5 -52.5
q-43 0 -82.5 13.5t-74.5 28.5t-60.5 24.5t-47.5 9.5q-35 0 -57 -21t-28 -66h-98z" />
    <glyph glyph-name="adieresis.aalt" horiz-adv-x="1150" 
d="M495 -19q-121 0 -208.5 56.5t-134 168.5t-46.5 278q0 167 50 279t141.5 169.5t216.5 57.5q109 0 185.5 -45t122.5 -120v149h167v-974h-158l-9 147q-52 -75 -134.5 -120.5t-192.5 -45.5zM526 117q109 0 181 52.5t115 126.5v377q-40 79 -107.5 129.5t-168.5 50.5
q-131 0 -199.5 -96.5t-68.5 -272.5q0 -179 64 -273t184 -94zM752 1164q-40 0 -66.5 25t-26.5 65q0 39 26.5 64.5t66.5 25.5t67 -25.5t27 -64.5q0 -40 -27 -65t-67 -25zM400 1164q-39 0 -66.5 25t-27.5 65q0 39 27.5 64.5t66.5 25.5q40 0 67 -25.5t27 -64.5q0 -40 -27 -65
t-67 -25z" />
    <glyph glyph-name="uni1EA1.aalt" horiz-adv-x="1150" 
d="M495 -19q-121 0 -208.5 56.5t-134 168.5t-46.5 278q0 167 50 279t141.5 169.5t216.5 57.5q109 0 185.5 -45t122.5 -120v149h167v-974h-158l-9 147q-52 -75 -134.5 -120.5t-192.5 -45.5zM526 117q109 0 181 52.5t115 126.5v377q-40 79 -107.5 129.5t-168.5 50.5
q-131 0 -199.5 -96.5t-68.5 -272.5q0 -179 64 -273t184 -94zM576 -291q-47 0 -76 27.5t-29 69.5t29 69.5t76 27.5t76 -27.5t29 -69.5t-29 -69.5t-76 -27.5z" />
    <glyph glyph-name="agrave.aalt" horiz-adv-x="1150" 
d="M495 -19q-121 0 -208.5 56.5t-134 168.5t-46.5 278q0 167 50 279t141.5 169.5t216.5 57.5q109 0 185.5 -45t122.5 -120v149h167v-974h-158l-9 147q-52 -75 -134.5 -120.5t-192.5 -45.5zM526 117q109 0 181 52.5t115 126.5v377q-40 79 -107.5 129.5t-168.5 50.5
q-131 0 -199.5 -96.5t-68.5 -272.5q0 -179 64 -273t184 -94zM540 1110l-267 269h192l204 -269h-129z" />
    <glyph glyph-name="amacron.aalt" horiz-adv-x="1150" 
d="M495 -19q-121 0 -208.5 56.5t-134 168.5t-46.5 278q0 167 50 279t141.5 169.5t216.5 57.5q109 0 185.5 -45t122.5 -120v149h167v-974h-158l-9 147q-52 -75 -134.5 -120.5t-192.5 -45.5zM526 117q109 0 181 52.5t115 126.5v377q-40 79 -107.5 129.5t-168.5 50.5
q-131 0 -199.5 -96.5t-68.5 -272.5q0 -179 64 -273t184 -94zM304 1178v123h545v-123h-545z" />
    <glyph glyph-name="aogonek.aalt" horiz-adv-x="1150" 
d="M495 -19q-121 0 -208.5 56.5t-134 168.5t-46.5 278q0 167 50 279t141.5 169.5t216.5 57.5q109 0 185.5 -45t122.5 -120v149h167v-974h-158l-9 147q-52 -75 -134.5 -120.5t-192.5 -45.5zM526 117q109 0 181 52.5t115 126.5v377q-40 79 -107.5 129.5t-168.5 50.5
q-131 0 -199.5 -96.5t-68.5 -272.5q0 -179 64 -273t184 -94zM843 -373q-76 0 -129.5 43t-53.5 119q0 51 31.5 101t85 89.5t118.5 56.5l63 -18q-88 -57 -122 -109.5t-34 -94.5q0 -35 20.5 -53.5t51.5 -18.5q34 0 63.5 8.5t61.5 22.5v-111q-29 -16 -63.5 -25.5t-92.5 -9.5z
" />
    <glyph glyph-name="aring.aalt" horiz-adv-x="1150" 
d="M495 -19q-121 0 -208.5 56.5t-134 168.5t-46.5 278q0 167 50 279t141.5 169.5t216.5 57.5q109 0 185.5 -45t122.5 -120v149h167v-974h-158l-9 147q-52 -75 -134.5 -120.5t-192.5 -45.5zM526 117q109 0 181 52.5t115 126.5v377q-40 79 -107.5 129.5t-168.5 50.5
q-131 0 -199.5 -96.5t-68.5 -272.5q0 -179 64 -273t184 -94zM576 1079q-92 0 -150 55.5t-58 147.5q0 90 58 145.5t150 55.5t150 -55.5t58 -145.5q0 -92 -58 -147.5t-150 -55.5zM576 1174q47 0 76 30t29 78q0 47 -29 77.5t-76 30.5q-46 0 -75 -30.5t-29 -77.5q0 -48 29 -78
t75 -30z" />
    <glyph glyph-name="aringacute.aalt" horiz-adv-x="1150" 
d="M495 -19q-121 0 -208.5 56.5t-134 168.5t-46.5 278q0 167 50 279t141.5 169.5t216.5 57.5q109 0 185.5 -45t122.5 -120v149h167v-974h-158l-9 147q-52 -75 -134.5 -120.5t-192.5 -45.5zM526 117q109 0 181 52.5t115 126.5v377q-40 79 -107.5 129.5t-168.5 50.5
q-131 0 -199.5 -96.5t-68.5 -272.5q0 -179 64 -273t184 -94zM576 1079q-92 0 -150 55.5t-58 147.5q0 90 58 145.5t150 55.5t150 -55.5t58 -145.5q0 -92 -58 -147.5t-150 -55.5zM576 1174q47 0 76 30t29 78q0 47 -29 77.5t-76 30.5q-46 0 -75 -30.5t-29 -77.5q0 -48 29 -78
t75 -30zM468 1505l203 269h194l-268 -269h-129z" />
    <glyph glyph-name="atilde.aalt" horiz-adv-x="1150" 
d="M495 -19q-121 0 -208.5 56.5t-134 168.5t-46.5 278q0 167 50 279t141.5 169.5t216.5 57.5q109 0 185.5 -45t122.5 -120v149h167v-974h-158l-9 147q-52 -75 -134.5 -120.5t-192.5 -45.5zM526 117q109 0 181 52.5t115 126.5v377q-40 79 -107.5 129.5t-168.5 50.5
q-131 0 -199.5 -96.5t-68.5 -272.5q0 -179 64 -273t184 -94zM285 1138q10 92 47.5 146t112.5 54q41 0 80.5 -14t76.5 -31q33 -14 59.5 -23t48.5 -9q24 0 40 20t20 62h98q-10 -89 -45.5 -141.5t-109.5 -52.5q-44 0 -83 13.5t-74 28.5q-34 15 -60 24.5t-49 9.5q-27 0 -43 -21
t-21 -66h-98z" />
    <glyph glyph-name="ae.aalt" horiz-adv-x="1796" 
d="M495 -19q-121 0 -208.5 56.5t-134 169t-46.5 278.5t50 278.5t143 169t220 56.5q105 0 181 -44.5t122 -119.5l8 149h150l7 -125q39 61 110 100.5t179 39.5q126 0 218.5 -54t143 -157.5t50.5 -253.5q0 -15 -1 -34.5t-3 -28.5h-694q0 -95 29 -174t93.5 -126.5t169.5 -47.5
q113 0 176 52t65 152h166q-4 -103 -53 -177.5t-135.5 -115t-200.5 -40.5t-190 37t-125 108l-7 -129h-147l-9 147q-52 -75 -134.5 -120.5t-192.5 -45.5zM530 117q106 0 177.5 52.5t114.5 126.5v379q-40 79 -107.5 128.5t-168.5 49.5q-134 0 -203.5 -96t-69.5 -272
q0 -120 29.5 -201.5t87 -124t140.5 -42.5zM991 583h531q-3 136 -70.5 207t-188.5 71q-123 0 -192 -71t-80 -207z" />
    <glyph glyph-name="aeacute.aalt" horiz-adv-x="1796" 
d="M495 -19q-121 0 -208.5 56.5t-134 169t-46.5 278.5t50 278.5t143 169t220 56.5q105 0 181 -44.5t122 -119.5l8 149h150l7 -125q39 61 110 100.5t179 39.5q126 0 218.5 -54t143 -157.5t50.5 -253.5q0 -15 -1 -34.5t-3 -28.5h-694q0 -95 29 -174t93.5 -126.5t169.5 -47.5
q113 0 176 52t65 152h166q-4 -103 -53 -177.5t-135.5 -115t-200.5 -40.5t-190 37t-125 108l-7 -129h-147l-9 147q-52 -75 -134.5 -120.5t-192.5 -45.5zM530 117q106 0 177.5 52.5t114.5 126.5v379q-40 79 -107.5 128.5t-168.5 49.5q-134 0 -203.5 -96t-69.5 -272
q0 -120 29.5 -201.5t87 -124t140.5 -42.5zM991 583h531q-3 136 -70.5 207t-188.5 71q-123 0 -192 -71t-80 -207zM812 1110l203 269h194l-268 -269h-129z" />
    <glyph glyph-name="g.aalt" horiz-adv-x="1148" 
d="M562 -379q-119 0 -212 32t-145.5 98.5t-53.5 169.5h163q0 -85 71.5 -128t176.5 -43q75 0 133 24t92 80.5t34 153.5v169q-52 -79 -134 -124.5t-192 -45.5q-121 0 -208.5 56t-134 165.5t-46.5 271.5t50 271.5t143 165t220 55.5q105 0 180 -45t122 -122l6 149h161v-966
q-1 -106 -32.5 -180t-88.5 -120t-134.5 -66.5t-170.5 -20.5zM530 144q106 0 176.5 53t114.5 129v344q-41 80 -107.5 133t-167.5 53q-131 0 -199.5 -93t-68.5 -263q0 -172 64 -264t188 -92z" />
    <glyph glyph-name="gbreve.aalt" horiz-adv-x="1148" 
d="M562 -379q-119 0 -212 32t-145.5 98.5t-53.5 169.5h163q0 -85 71.5 -128t176.5 -43q75 0 133 24t92 80.5t34 153.5v169q-52 -79 -134 -124.5t-192 -45.5q-121 0 -208.5 56t-134 165.5t-46.5 271.5t50 271.5t143 165t220 55.5q105 0 180 -45t122 -122l6 149h161v-966
q-1 -106 -32.5 -180t-88.5 -120t-134.5 -66.5t-170.5 -20.5zM530 144q106 0 176.5 53t114.5 129v344q-41 80 -107.5 133t-167.5 53q-131 0 -199.5 -93t-68.5 -263q0 -172 64 -264t188 -92zM574 1118q-114 0 -183 66.5t-83 185.5h103q10 -77 57.5 -110t105.5 -33q60 0 110 34
t59 109h97q-12 -117 -81.5 -184.5t-184.5 -67.5z" />
    <glyph glyph-name="gcaron.aalt" horiz-adv-x="1148" 
d="M562 -379q-119 0 -212 32t-145.5 98.5t-53.5 169.5h163q0 -85 71.5 -128t176.5 -43q75 0 133 24t92 80.5t34 153.5v169q-52 -79 -134 -124.5t-192 -45.5q-121 0 -208.5 56t-134 165.5t-46.5 271.5t50 271.5t143 165t220 55.5q105 0 180 -45t122 -122l6 149h161v-966
q-1 -106 -32.5 -180t-88.5 -120t-134.5 -66.5t-170.5 -20.5zM530 144q106 0 176.5 53t114.5 129v344q-41 80 -107.5 133t-167.5 53q-131 0 -199.5 -93t-68.5 -263q0 -172 64 -264t188 -92zM492 1110l-214 269h138l160 -172l158 172h139l-214 -269h-167z" />
    <glyph glyph-name="gcircumflex.aalt" horiz-adv-x="1148" 
d="M562 -379q-119 0 -212 32t-145.5 98.5t-53.5 169.5h163q0 -85 71.5 -128t176.5 -43q75 0 133 24t92 80.5t34 153.5v169q-52 -79 -134 -124.5t-192 -45.5q-121 0 -208.5 56t-134 165.5t-46.5 271.5t50 271.5t143 165t220 55.5q105 0 180 -45t122 -122l6 149h161v-966
q-1 -106 -32.5 -180t-88.5 -120t-134.5 -66.5t-170.5 -20.5zM530 144q106 0 176.5 53t114.5 129v344q-41 80 -107.5 133t-167.5 53q-131 0 -199.5 -93t-68.5 -263q0 -172 64 -264t188 -92zM280 1110l214 269h167l214 -269h-139l-158 172l-160 -172h-138z" />
    <glyph glyph-name="uni0123.aalt" horiz-adv-x="1148" 
d="M562 -379q-119 0 -212 32t-145.5 98.5t-53.5 169.5h163q0 -85 71.5 -128t176.5 -43q75 0 133 24t92 80.5t34 153.5v169q-52 -79 -134 -124.5t-192 -45.5q-121 0 -208.5 56t-134 165.5t-46.5 271.5t50 271.5t143 165t220 55.5q105 0 180 -45t122 -122l6 149h161v-966
q-1 -106 -32.5 -180t-88.5 -120t-134.5 -66.5t-170.5 -20.5zM530 144q106 0 176.5 53t114.5 129v344q-41 80 -107.5 133t-167.5 53q-131 0 -199.5 -93t-68.5 -263q0 -172 64 -264t188 -92zM573 1152q-45 0 -76 28.5t-31 84.5t28 102t73.5 77.5t99.5 42.5l22 -68
q-31 -13 -60.5 -35.5t-41.5 -54.5q38 -6 62 -30t24 -57q0 -38 -27.5 -64t-72.5 -26z" />
    <glyph glyph-name="gdotaccent.aalt" horiz-adv-x="1148" 
d="M562 -379q-119 0 -212 32t-145.5 98.5t-53.5 169.5h163q0 -85 71.5 -128t176.5 -43q75 0 133 24t92 80.5t34 153.5v169q-52 -79 -134 -124.5t-192 -45.5q-121 0 -208.5 56t-134 165.5t-46.5 271.5t50 271.5t143 165t220 55.5q105 0 180 -45t122 -122l6 149h161v-966
q-1 -106 -32.5 -180t-88.5 -120t-134.5 -66.5t-170.5 -20.5zM530 144q106 0 176.5 53t114.5 129v344q-41 80 -107.5 133t-167.5 53q-131 0 -199.5 -93t-68.5 -263q0 -172 64 -264t188 -92zM576 1157q-47 0 -76 27.5t-29 69.5t29 69.5t76 27.5t76 -27.5t29 -69.5t-29 -69.5
t-76 -27.5z" />
    <glyph glyph-name="f_j.dlig" horiz-adv-x="1106" 
d="M195 0v839h-163v135h163v56q0 74 12.5 133t44 99.5t88 62t146.5 21.5h101v-131h-90q-89 0 -112.5 -48t-23.5 -139v-54h227v-135h-227v-839h-166zM589 -358v136h43q73 0 109.5 34.5t36.5 115.5v1046h167v-1032q0 -146 -67.5 -223t-221.5 -77h-67zM861 1157
q-47 0 -75.5 27.5t-28.5 69.5t28.5 69.5t75.5 27.5t76 -27.5t29 -69.5t-29 -69.5t-76 -27.5z" />
    <glyph glyph-name="uni207F" unicode="&#x207f;" horiz-adv-x="912" 
d="M118 577v778h145l4 -119q37 45 103.5 85.5t170.5 40.5q134 0 194.5 -74.5t60.5 -209.5v-501h-150v484q0 78 -28 131t-111 53q-87 0 -145 -37.5t-94 -79.5v-551h-150z" />
    <glyph glyph-name="ordfeminine" unicode="&#xaa;" horiz-adv-x="879" 
d="M330 557q-66 0 -122.5 26t-90.5 77.5t-34 127.5q0 107 65.5 160.5t184.5 73.5t281 22v54q0 87 -47 121t-119 34q-76 0 -127 -35.5t-51 -114.5h-147q0 138 91 199.5t234 61.5q87 0 158.5 -23t114 -80.5t42.5 -162.5v-521h-141l-7 109q-52 -61 -122.5 -95t-162.5 -34z
M375 670q80 0 143 39.5t96 102.5v141q-203 -3 -290.5 -40.5t-87.5 -118.5q0 -58 36.5 -91t102.5 -33z" />
    <glyph glyph-name="ordmasculine" unicode="&#xba;" horiz-adv-x="915" 
d="M452 557q-114 0 -197 48.5t-127.5 138.5t-44.5 215q0 128 44.5 218.5t127.5 138.5t197 48q118 0 203 -48.5t131.5 -139t46.5 -217.5q0 -125 -46.5 -215t-131.5 -138.5t-203 -48.5zM452 678q125 0 175.5 80t50.5 201q0 82 -22 146t-71 101t-133 37q-117 0 -167 -80
t-50 -204q0 -121 50 -201t167 -80z" />
    <glyph glyph-name="uni0410" unicode="&#x410;" horiz-adv-x="1207" 
d="M8 0l504 1346h190l497 -1346h-186l-128 377h-558l-134 -377h-185zM376 528h458l-228 639z" />
    <glyph glyph-name="uni0411" unicode="&#x411;" horiz-adv-x="1237" 
d="M176 0v1346h850v-151h-670v-1195h-180zM253 0l75 794h325q164 0 273 -45t163 -132.5t54 -216.5q0 -135 -54 -224t-163 -132.5t-275 -43.5h-398zM356 144h292q94 0 164.5 22.5t110.5 79.5t40 157q0 140 -88 193.5t-227 53.5h-292v-506z" />
    <glyph glyph-name="uni0412" unicode="&#x412;" horiz-adv-x="1237" 
d="M176 0v1346h432q203 0 324.5 -82t121.5 -250q0 -106 -59.5 -189t-157.5 -108q140 -23 223 -111.5t83 -218.5q0 -122 -54 -208.5t-163 -132.5t-275 -46h-475zM356 150h292q85 0 157 21.5t115 76t43 150.5q0 116 -84 173t-231 57h-292v-478zM356 774h251q130 0 198.5 59.5
t68.5 160.5q0 68 -31 113.5t-90.5 68t-145.5 22.5h-251v-424z" />
    <glyph glyph-name="uni0413" unicode="&#x413;" horiz-adv-x="950" 
d="M176 0v1346h737v-151h-557v-1195h-180z" />
    <glyph glyph-name="uni0403" unicode="&#x403;" horiz-adv-x="950" 
d="M176 0v1346h737v-151h-557v-1195h-180zM432 1462l194 269h193l-257 -269h-130z" />
    <glyph glyph-name="uni0490" unicode="&#x490;" horiz-adv-x="950" 
d="M176 0v1346h737v-151h-557v-1195h-180zM742 1205v398h171v-398h-171z" />
    <glyph glyph-name="uni04F6" unicode="&#x4f6;" horiz-adv-x="950" 
d="M176 0v1346h737v-151h-557v-1195h-180zM352 -288v288l-18 49l-11 102h198v-439h-169z" />
    <glyph glyph-name="uni0492" unicode="&#x492;" horiz-adv-x="950" 
d="M0 613v144h714v-144h-714zM176 0v1346h737v-151h-557v-1195h-180z" />
    <glyph glyph-name="uni0494" unicode="&#x494;" horiz-adv-x="1285" 
d="M643 -282v154h72q134 0 182.5 68t48.5 222v314q0 152 -68.5 215.5t-203.5 63.5q-71 0 -158 -16t-160 -46v-693h-180v1346h737v-151h-557v-356q85 32 165.5 50t175.5 18q131 0 227.5 -42.5t149 -136.5t52.5 -250v-316q0 -233 -92.5 -338.5t-304.5 -105.5h-86z" />
    <glyph glyph-name="uni0414" unicode="&#x414;" horiz-adv-x="1366" 
d="M17 -288v437h138q45 89 81 226t64.5 300.5t49 336.5t32.5 334h769v-1195h165v-439h-169v288h-960v-288h-170zM341 151h632v1043h-442q-6 -93 -18.5 -204.5t-30 -230t-40 -232t-48 -211t-53.5 -165.5z" />
    <glyph glyph-name="uni0415" unicode="&#x415;" horiz-adv-x="1139" 
d="M176 0v1346h859v-150h-679v-429h625v-148h-625v-469h679v-150h-859z" />
    <glyph glyph-name="uni0400" unicode="&#x400;" horiz-adv-x="1139" 
d="M176 0v1346h859v-150h-679v-429h625v-148h-625v-469h679v-150h-859zM560 1462l-257 269h193l194 -269h-130z" />
    <glyph glyph-name="uni0401" unicode="&#x401;" horiz-adv-x="1139" 
d="M176 0v1346h859v-150h-679v-429h625v-148h-625v-469h679v-150h-859zM781 1510q-40 0 -66.5 25t-26.5 65t26.5 65.5t66.5 25.5t67 -25.5t27 -65.5t-27 -65t-67 -25zM429 1510q-39 0 -66.5 25t-27.5 65t27.5 65.5t66.5 25.5q40 0 67 -25.5t27 -65.5t-27 -65t-67 -25z" />
    <glyph glyph-name="uni0416" unicode="&#x416;" horiz-adv-x="1771" 
d="M799 0v1346h172v-647l554 647h197l-559 -640l606 -706h-207l-591 691v-691h-172zM2 0l606 706l-559 640h198l552 -647v-8l-590 -691h-207z" />
    <glyph glyph-name="uni0417" unicode="&#x417;" horiz-adv-x="1169" 
d="M580 -18q-151 0 -263 48.5t-173.5 142.5t-61.5 231h178q0 -127 84 -202.5t234 -75.5q144 0 228 64t84 199q0 127 -86 187.5t-236 60.5h-116v144h120q138 0 213 63t75 169q0 104 -75.5 156.5t-198.5 52.5q-138 0 -214.5 -67.5t-73.5 -176.5h-178q0 118 58 205t162.5 135
t243.5 48q125 0 228 -39t164.5 -115t61.5 -189q0 -119 -76.5 -197t-198.5 -108q135 -25 223.5 -110.5t88.5 -224.5q0 -129 -62.5 -218.5t-173.5 -136t-259 -46.5z" />
    <glyph glyph-name="uni0418" unicode="&#x418;" horiz-adv-x="1446" 
d="M1269 0h-170v1099l-739 -1099h-184v1346h170v-1096l739 1096h184v-1346z" />
    <glyph glyph-name="uni0419" unicode="&#x419;" horiz-adv-x="1446" 
d="M1269 0h-170v1099l-739 -1099h-184v1346h170v-1096l739 1096h184v-1346zM731 1481q-151 0 -231.5 66.5t-98.5 185.5h147q10 -76 65 -110.5t120 -34.5q66 0 121.5 35.5t65.5 109.5h144q-16 -117 -99 -184.5t-234 -67.5z" />
    <glyph glyph-name="uni040D" unicode="&#x40d;" horiz-adv-x="1446" 
d="M1269 0h-170v1099l-739 -1099h-184v1346h170v-1096l739 1096h184v-1346zM689 1462l-257 269h193l194 -269h-130z" />
    <glyph glyph-name="uni048A" unicode="&#x48a;" horiz-adv-x="1482" 
d="M1239 151h192l-123 -439h-196l126 288zM1269 0h-170v1099l-739 -1099h-184v1346h170v-1096l739 1096h184v-1346zM731 1481q-151 0 -231.5 66.5t-98.5 185.5h147q10 -76 65 -110.5t120 -34.5q66 0 121.5 35.5t65.5 109.5h144q-16 -117 -99 -184.5t-234 -67.5z" />
    <glyph glyph-name="uni041A" unicode="&#x41a;" horiz-adv-x="1164" 
d="M176 0v1346h180v-647l553 647h206l-559 -635l606 -711h-221l-585 691v-691h-180z" />
    <glyph glyph-name="uni040C" unicode="&#x40c;" horiz-adv-x="1164" 
d="M176 0v1346h180v-647l553 647h206l-559 -635l606 -711h-221l-585 691v-691h-180zM497 1462l194 269h193l-257 -269h-130z" />
    <glyph glyph-name="uni041B" unicode="&#x41b;" horiz-adv-x="1344" 
d="M988 0v1194h-525l57 152h647v-1346h-179zM17 -13v153h20q66 0 111.5 30.5t79 110t62.5 222.5t61 368l70 475h172l-70 -508q-33 -243 -67 -407t-83 -261.5t-125.5 -140t-196.5 -42.5h-34z" />
    <glyph glyph-name="uni041C" unicode="&#x41c;" horiz-adv-x="1618" 
d="M176 0v1346h197l479 -793h-73l470 793h192v-1346h-177v1196h62l-457 -773h-118l-464 773h62v-1196h-173z" />
    <glyph glyph-name="uni041D" unicode="&#x41d;" horiz-adv-x="1448" 
d="M176 0v1346h180v-565h736v565h178v-1346h-178v625h-736v-625h-180z" />
    <glyph glyph-name="uni041E" unicode="&#x41e;" horiz-adv-x="1500" 
d="M750 -18q-211 0 -354 88t-215.5 243t-72.5 359t72.5 360t215.5 244t354 88t353 -88t214.5 -244t72.5 -360t-72.5 -359t-214.5 -243t-353 -88zM750 129q162 0 262 73t146.5 196.5t46.5 273.5q0 151 -46.5 274.5t-146.5 197t-262 73.5t-262.5 -73.5t-146.5 -197t-46 -274.5
q0 -150 46 -273.5t146.5 -196.5t262.5 -73z" />
    <glyph glyph-name="uni041F" unicode="&#x41f;" horiz-adv-x="1428" 
d="M176 0v1346h1074v-1346h-178v1194h-716v-1194h-180z" />
    <glyph glyph-name="uni0420" unicode="&#x420;" horiz-adv-x="1182" 
d="M176 0v1346h486q125 0 225 -47.5t158 -140t58 -226.5q0 -131 -58 -220t-158 -135t-225 -46h-306v-531h-180zM356 680h292q122 0 197.5 62.5t75.5 189.5q0 136 -76 201t-197 65h-292v-518z" />
    <glyph glyph-name="uni0421" unicode="&#x421;" horiz-adv-x="1418" 
d="M750 -18q-209 0 -352 88t-216.5 243t-73.5 359t73.5 360t216.5 244t352 88q138 0 260.5 -48t204 -146.5t95.5 -248.5h-181q-12 101 -67.5 166.5t-137 97.5t-174.5 32q-162 0 -262.5 -74t-146.5 -197t-46 -274q0 -150 46 -273t146.5 -195.5t262.5 -72.5q164 0 266 81
t118 242h182q-16 -159 -93 -263.5t-199 -156.5t-274 -52z" />
    <glyph glyph-name="uni0422" unicode="&#x422;" horiz-adv-x="980" 
d="M401 0v1195h-383v151h944v-151h-382v-1195h-179z" />
    <glyph glyph-name="uni0423" unicode="&#x423;" horiz-adv-x="1120" 
d="M200 -10v149h67q76 0 127 28.5t89 102.5l9 19l-484 1057h192l383 -869l345 869h184l-462 -1111q-30 -71 -64 -118.5t-76.5 -75.5t-98 -39.5t-127.5 -11.5h-84z" />
    <glyph glyph-name="uni040E" unicode="&#x40e;" horiz-adv-x="1120" 
d="M200 -10v149h67q76 0 127 28.5t89 102.5l9 19l-484 1057h192l383 -869l345 869h184l-462 -1111q-30 -71 -64 -118.5t-76.5 -75.5t-98 -39.5t-127.5 -11.5h-84zM561 1481q-151 0 -231.5 66.5t-98.5 185.5h147q10 -76 65 -110.5t120 -34.5q66 0 121.5 35.5t65.5 109.5h144
q-16 -117 -99 -184.5t-234 -67.5z" />
    <glyph glyph-name="uni0424" unicode="&#x424;" horiz-adv-x="1503" 
d="M791 146v144h39q188 0 299.5 97t111.5 298q0 189 -112 281t-299 92h-39v145h49q168 0 299.5 -60.5t207.5 -176t76 -281.5q0 -173 -76 -293.5t-207.5 -183t-299.5 -62.5h-49zM661 -41v1427h180v-1427h-180zM712 146h-49q-167 0 -299.5 62.5t-208.5 183t-76 293.5
q0 166 76 281.5t208.5 176t299.5 60.5h49v-145h-40q-186 0 -298.5 -92t-112.5 -281q0 -201 112 -298t299 -97h40v-144z" />
    <glyph glyph-name="uni0425" unicode="&#x425;" horiz-adv-x="1132" 
d="M14 0l449 697l-418 649h204l316 -527l329 527h194l-419 -652l450 -694h-210l-344 558l-354 -558h-197z" />
    <glyph glyph-name="uni0427" unicode="&#x427;" horiz-adv-x="1286" 
d="M930 0v593q-82 -43 -171.5 -72.5t-193.5 -29.5q-128 0 -219 41.5t-139 128.5t-48 224v461h180v-452q0 -130 62 -190.5t186 -60.5q91 0 173 22.5t170 71.5v609h179v-1346h-179z" />
    <glyph glyph-name="uni0426" unicode="&#x426;" horiz-adv-x="1465" 
d="M176 0v1346h180v-1194h716v1194h178v-1346h-1074zM1246 -288v288l-17 44l-12 107h198v-439h-169z" />
    <glyph glyph-name="uni0428" unicode="&#x428;" horiz-adv-x="1871" 
d="M176 0v1346h180v-1194h1159v1194h179v-1346h-1518zM847 47v1299h178v-1299h-178z" />
    <glyph glyph-name="uni0429" unicode="&#x429;" horiz-adv-x="1909" 
d="M176 0v1346h180v-1194h1159v1194h179v-1346h-1518zM847 47v1299h178v-1299h-178zM1690 -288v288l-18 49l-10 102h196v-439h-168z" />
    <glyph glyph-name="uni040F" unicode="&#x40f;" horiz-adv-x="1428" 
d="M176 0v1346h180v-1194h716v1194h178v-1346h-1074zM629 -288v434h171v-434h-171z" />
    <glyph glyph-name="uni042C" unicode="&#x42c;" horiz-adv-x="1237" 
d="M176 0v1346h180v-1346h-180zM253 0l75 815h325q164 0 273 -46t163 -135t54 -221q0 -140 -54 -231.5t-163 -136.5t-275 -45h-398zM356 144h292q94 0 164.5 23.5t110.5 83t40 165.5q0 143 -88 198.5t-227 55.5h-292v-526z" />
    <glyph glyph-name="uni042B" unicode="&#x42b;" horiz-adv-x="1620" 
d="M253 0l75 815h269q164 0 272.5 -46.5t162.5 -136.5t54 -222q0 -139 -54 -230t-163 -135.5t-274 -44.5h-342zM176 0v1346h180v-1346h-180zM356 144h236q94 0 164.5 23.5t110.5 82.5t40 164q0 145 -92 200.5t-254 55.5h-205v-526zM1263 0v1346h180v-1346h-180z" />
    <glyph glyph-name="uni042A" unicode="&#x42a;" horiz-adv-x="1446" 
d="M479 0l53 815h346q165 0 274 -46.5t163 -136.5t54 -222q0 -139 -54 -230t-163.5 -135.5t-274.5 -44.5h-398zM402 0v1346h180v-1346h-180zM582 144h291q94 0 165 23.5t111 82.5t40 164q0 145 -88.5 200.5t-227.5 55.5h-291v-526zM18 1195v151h530v-151h-530z" />
    <glyph glyph-name="uni0409" unicode="&#x409;" horiz-adv-x="1992" 
d="M988 0v1194h-525l57 152h647v-1346h-179zM17 -13v153h20q66 0 111.5 30.5t79 110t62.5 222.5t61 368l70 475h172l-70 -508q-33 -243 -67 -407t-83 -261.5t-125.5 -140t-196.5 -42.5h-34zM1148 144h255q94 0 164.5 23.5t111 82.5t40.5 164q0 145 -88.5 200.5t-227.5 55.5
h-255v-526zM1049 0l58 815h301q164 0 273 -46.5t163 -136.5t54 -222q0 -139 -54 -230t-163 -135.5t-275 -44.5h-357z" />
    <glyph glyph-name="uni040A" unicode="&#x40a;" horiz-adv-x="1954" 
d="M1130 815h240q164 0 273 -46.5t163 -136.5t54 -222q0 -139 -54 -230t-163 -135.5t-275 -44.5h-418v625h-594v-625h-180v1346h180v-565h594v565h180v-531zM1130 144h235q94 0 164.5 23.5t110.5 82.5t40 164q0 145 -88 200.5t-227 55.5h-235v-526z" />
    <glyph glyph-name="uni0405" unicode="&#x405;" horiz-adv-x="1159" 
d="M589 -18q-144 0 -260 44t-184.5 138t-68.5 244h181q0 -107 46.5 -168t123.5 -86t169 -25q85 0 155.5 25.5t112.5 77t42 132.5q0 70 -33 115t-109.5 78.5t-205.5 66.5q-152 40 -250 87.5t-145.5 118.5t-47.5 180q0 115 54 193.5t155 119.5t240 41q130 0 238 -42
t172.5 -126t64.5 -209h-180q1 114 -84 172.5t-210 58.5q-129 0 -200.5 -51.5t-71.5 -150.5q0 -59 31 -98.5t106.5 -71.5t210.5 -67q156 -42 253.5 -90t143.5 -123t46 -197q0 -130 -65 -215.5t-177 -128.5t-253 -43z" />
    <glyph glyph-name="uni0404" unicode="&#x404;" horiz-adv-x="1418" 
d="M750 -18q-209 0 -352 88t-216.5 243t-73.5 359t73.5 360t216.5 244t352 88q138 0 260.5 -48t204 -146.5t95.5 -248.5h-181q-12 101 -67.5 166.5t-137 97.5t-174.5 32q-162 0 -262.5 -74t-146.5 -197t-46 -274q0 -150 46 -273t146.5 -195.5t262.5 -72.5q164 0 266 81
t118 242h182q-16 -159 -93 -263.5t-199 -156.5t-274 -52zM172 619v148h714v-148h-714z" />
    <glyph glyph-name="uni042D" unicode="&#x42d;" horiz-adv-x="1426" 
d="M675 -18q-151 0 -273 52t-199 156.5t-95 263.5h182q17 -161 118.5 -242t266.5 -81q162 0 262 72.5t146 195.5t46 273q0 151 -46 274t-146 197t-262 74q-93 0 -175 -32t-137 -97.5t-68 -166.5h-180q14 150 95 248.5t204 146.5t261 48q209 0 351.5 -88t216 -244t73.5 -360
t-73.5 -359t-216 -243t-351.5 -88zM538 619v148h714v-148h-714z" />
    <glyph glyph-name="uni0406" unicode="&#x406;" horiz-adv-x="533" 
d="M176 0v1346h180v-1346h-180z" />
    <glyph glyph-name="uni0407" unicode="&#x407;" horiz-adv-x="533" 
d="M176 0v1346h180v-1346h-180zM442 1510q-40 0 -66.5 25t-26.5 65t26.5 65.5t66.5 25.5t67 -25.5t27 -65.5t-27 -65t-67 -25zM90 1510q-39 0 -66.5 25t-27.5 65t27.5 65.5t66.5 25.5q40 0 67 -25.5t27 -65.5t-27 -65t-67 -25z" />
    <glyph glyph-name="uni0408" unicode="&#x408;" horiz-adv-x="678" 
d="M37 -10v153h71q134 0 184 61.5t50 199.5v942h177v-945q0 -143 -40 -234t-127.5 -134t-229.5 -43h-85z" />
    <glyph glyph-name="uni040B" unicode="&#x40b;" horiz-adv-x="1510" 
d="M401 0v1195h-383v151h942v-151h-381v-453q84 44 173.5 73.5t193.5 29.5q128 0 218.5 -41.5t138.5 -128.5t48 -224v-451h-180v442q0 130 -62 190.5t-185 60.5q-91 0 -173.5 -23t-171.5 -71v-599h-178z" />
    <glyph glyph-name="uni042E" unicode="&#x42e;" horiz-adv-x="1944" 
d="M176 0v1346h180v-565h348v-156h-348v-625h-180zM1215 -18q-205 0 -343.5 88t-208.5 243t-70 359t70 360t208.5 244t343.5 88q204 0 342 -88t207.5 -244t69.5 -360t-69.5 -359t-207.5 -243t-342 -88zM1215 129q154 0 249.5 73t140 196.5t44.5 273.5q0 151 -44.5 274.5
t-140 197t-249.5 73.5q-156 0 -251.5 -73.5t-139.5 -197t-44 -274.5q0 -150 44 -273.5t139.5 -196.5t251.5 -73z" />
    <glyph glyph-name="uni042F" unicode="&#x42f;" horiz-adv-x="1241" 
d="M64 0l104 337q30 99 69.5 163.5t92.5 100.5t123 47q-149 32 -226 122t-77 218q0 126 60.5 205t161 116t222.5 37h469v-1346h-179v570h-278q-64 0 -113.5 -27t-86.5 -84.5t-65 -149.5l-93 -309h-184zM616 720h268v476h-273q-138 0 -209 -63t-71 -176q0 -75 38 -128
t103 -81t144 -28z" />
    <glyph glyph-name="uni0402" unicode="&#x402;" horiz-adv-x="1510" 
d="M401 0v1195h-383v151h942v-151h-381v-453q83 44 172 73.5t193 29.5q128 0 219 -41t139.5 -127t48.5 -221v-310l-180 2v299q0 127 -62.5 186.5t-186.5 59.5q-91 0 -172.5 -23t-170.5 -71v-599h-178zM868 -282v154h72q133 0 182 66t49 210l180 -2q0 -223 -93 -325.5
t-305 -102.5h-85z" />
    <glyph glyph-name="uni0460" unicode="&#x460;" horiz-adv-x="1899" 
d="M571 -18q-228 0 -333 165t-105 478q0 179 31 360t82 361h181q-51 -174 -82 -348.5t-31 -348.5q0 -150 20.5 -266t79 -182t170.5 -66q101 0 161.5 63.5t87.5 163t27 208.5v472h178v-472q0 -109 27 -208.5t88 -163t162 -63.5q112 0 170 66t78.5 182t20.5 266
q0 174 -31 348.5t-81 348.5h181q50 -180 81 -361t31 -360q0 -313 -104.5 -478t-332.5 -165q-121 0 -223 72.5t-155 221.5q-54 -149 -155.5 -221.5t-223.5 -72.5z" />
    <glyph glyph-name="uni0462" unicode="&#x462;" horiz-adv-x="1350" 
d="M14 1083v141h820v-141h-820zM290 0v1346h180v-1346h-180zM367 0l75 815h325q164 0 273 -46t162.5 -135t53.5 -221q0 -140 -53.5 -231.5t-162.5 -136.5t-275 -45h-398zM470 144h292q94 0 164.5 23.5t110.5 83t40 165.5q0 143 -88 198.5t-227 55.5h-292v-526z" />
    <glyph glyph-name="uni0464" unicode="&#x464;" horiz-adv-x="1898" 
d="M1251 -18q-202 0 -341 88t-210 243t-71 359t71 360t210 244t341 88q133 0 250.5 -48t196.5 -146.5t92 -248.5h-180q-12 101 -64.5 166.5t-130 97.5t-164.5 32q-155 0 -251 -74t-140 -197t-44 -274q0 -150 44 -273t140 -195.5t251 -72.5q154 0 251 81t112 242h182
q-15 -159 -89.5 -263.5t-192 -156.5t-263.5 -52zM176 0v1346h180v-577h348v-152h-348v-617h-180zM757 619v148h640v-148h-640z" />
    <glyph glyph-name="uni0466" unicode="&#x466;" horiz-adv-x="1342" 
d="M8 0l560 1346h211l555 -1346h-191l-471 1197l-474 -1197h-190zM583 0v633h167v-633h-167zM285 496v151h765v-151h-765z" />
    <glyph glyph-name="uni0468" unicode="&#x468;" horiz-adv-x="1827" 
d="M492 0l560 1346h211l556 -1346h-192l-471 1197l-473 -1197h-191zM176 0v1346h180v-699h459v-150h-459v-497h-180zM1067 0v633h168v-633h-168zM829 496v151h705v-151h-705z" />
    <glyph glyph-name="uni046A" unicode="&#x46a;" horiz-adv-x="1522" 
d="M670 0v544l-459 655v147h78l470 -680l485 680h74v-145l-474 -657v-544h-174zM1 0l172 389q32 73 63 136t73 111.5t105.5 75.5t158.5 27l148 -120h-113q-75 0 -121 -30.5t-76.5 -85.5t-61.5 -128l-160 -375h-188zM1333 0l-160 375q-31 73 -62 128t-76.5 85.5t-121.5 30.5
h-110l145 120q96 0 159.5 -27t105 -75.5t73 -111.5t63.5 -136l172 -389h-188zM245 1196l-5 150h1048l-5 -150h-1038z" />
    <glyph glyph-name="uni046C" unicode="&#x46c;" horiz-adv-x="2014" 
d="M176 0v1346h180v-589h654l-307 442v147h1108v-145l-356 -493l-6 31q125 -2 194.5 -49.5t112 -126t85.5 -174.5l172 -389h-189l-160 375q-31 77 -63.5 133t-82.5 84.5t-135 23.5l13 8l-59 -80v-544h-175v544l-73 101l27 -28q-82 4 -130.5 -25.5t-80.5 -85t-64 -131.5
l-159 -375h-188l172 389q27 62 53 118.5t62 98.5l-425 -1v-605h-180zM1252 666l376 530h-741z" />
    <glyph glyph-name="uni046E" unicode="&#x46e;" horiz-adv-x="1115" 
d="M135 -255q-36 203 34.5 293.5t240.5 90.5h124q141 0 221.5 63.5t80.5 196.5q0 127 -81.5 187.5t-224.5 60.5h-116v144h120q131 0 201.5 63t70.5 169q0 104 -73 156.5t-191 52.5q-134 0 -209.5 -67.5t-72.5 -176.5h-178q0 118 58 205t161 135t239 48q123 0 223.5 -39
t160.5 -115t60 -189q0 -119 -75.5 -197t-198.5 -108q135 -25 223 -110.5t88 -224.5q0 -129 -58.5 -218.5t-163 -136t-243.5 -46.5h-80q-86 0 -127 -23t-48 -75t7 -139h-173zM450 1462l-214 270h138l158 -173l160 173h139l-214 -270h-167z" />
    <glyph glyph-name="uni0470" unicode="&#x470;" horiz-adv-x="1571" 
d="M828 350v150h56q170 0 272.5 86.5t102.5 262.5v497h185l-3 -497q-1 -161 -72.5 -273t-195 -169t-280.5 -57h-65zM675 350q-157 0 -281 57t-195.5 169t-71.5 273v497h181v-497q0 -176 103 -262.5t274 -86.5h55v-150h-65zM693 0v1346h179v-1346h-179z" />
    <glyph glyph-name="uni0472" unicode="&#x472;" horiz-adv-x="1500" 
d="M244 621v143h991v-143h-991zM750 -18q-211 0 -354 88t-215.5 243t-72.5 359t72.5 360t215.5 244t354 88t353 -88t214.5 -244t72.5 -360t-72.5 -359t-214.5 -243t-353 -88zM750 129q162 0 262 73t146.5 196.5t46.5 273.5q0 151 -46.5 274.5t-146.5 197t-262 73.5
t-262.5 -73.5t-146.5 -197t-46 -274.5q0 -150 46 -273.5t146.5 -196.5t262.5 -73z" />
    <glyph glyph-name="uni0474" unicode="&#x474;" horiz-adv-x="1249" 
d="M492 0l-484 1346h191l400 -1156l281 854q40 126 86.5 191t109 88t149.5 23h49v-152h-15q-47 0 -86 -15.5t-74 -63.5t-69 -146l-328 -969h-210z" />
    <glyph glyph-name="uni0476" unicode="&#x476;" horiz-adv-x="1249" 
d="M492 0l-484 1346h191l400 -1156l281 854q40 126 86.5 191t109 88t149.5 23h49v-152h-15q-47 0 -86 -15.5t-74 -63.5t-69 -146l-328 -969h-210zM559 1462h-119l-227 270h171zM845 1462h-118l-228 270h171z" />
    <glyph glyph-name="uni0478" unicode="&#x478;" horiz-adv-x="2305" 
d="M712 -18q-199 0 -333.5 88t-202.5 243t-68 359t68 360t202.5 244t333.5 88t332.5 -88t201 -244t67.5 -360t-67.5 -359t-201 -243t-332.5 -88zM712 129q148 0 239.5 73t134 196.5t42.5 273.5q0 151 -42.5 274.5t-134 197t-239.5 73.5q-149 0 -241 -73.5t-134 -197
t-42 -274.5q0 -150 42 -273.5t134 -196.5t241 -73zM1763 0l-384 974h177l299 -797l280 797h170l-365 -974h-177zM1485 -358v138h82q58 0 94 30.5t65 101.5l37 88h177l-48 -123q-33 -85 -71.5 -136.5t-94 -75t-141.5 -23.5h-100z" />
    <glyph glyph-name="uni0496" unicode="&#x496;" horiz-adv-x="1862" 
d="M1667 -288v288l-17 44l-27 107h213v-439h-169zM799 0v1346h172v-647l554 647h197l-559 -640l606 -706h-207l-591 691v-691h-172zM2 0l606 706l-559 640h198l552 -647v-8l-590 -691h-207z" />
    <glyph glyph-name="uni0498" unicode="&#x498;" horiz-adv-x="1169" 
d="M580 -18q-151 0 -263 48.5t-173.5 142.5t-61.5 231h178q0 -127 84 -202.5t234 -75.5q144 0 228 64t84 199q0 127 -86 187.5t-236 60.5h-116v144h120q138 0 213 63t75 169q0 104 -75.5 156.5t-198.5 52.5q-138 0 -214.5 -67.5t-73.5 -176.5h-178q0 118 58 205t162.5 135
t243.5 48q125 0 228 -39t164.5 -115t61.5 -189q0 -119 -76.5 -197t-198.5 -108q135 -25 223.5 -110.5t88.5 -224.5q0 -129 -62.5 -218.5t-173.5 -136t-259 -46.5zM562 -382q-57 0 -100 9.5t-81 24.5l27 93q26 -12 66.5 -20.5t81.5 -8.5q36 0 61 17t25 48q0 35 -32 52.5
t-111 26.5l-44 5l132 177l81 -37l-68 -93l-30 23q94 -4 145.5 -42t51.5 -109q0 -55 -27 -92t-73 -55.5t-105 -18.5z" />
    <glyph glyph-name="uni049A" unicode="&#x49a;" horiz-adv-x="1254" 
d="M1059 -288v288l-17 44l-27 107h214v-439h-170zM176 0v1346h180v-647l553 647h206l-559 -635l606 -711h-221l-585 691v-691h-180z" />
    <glyph glyph-name="uni049C" unicode="&#x49c;" horiz-adv-x="1164" 
d="M457 1145h109v-905h-109v905zM176 0v1346h180v-647l553 647h206l-559 -635l606 -711h-221l-585 691v-691h-180z" />
    <glyph glyph-name="uni049E" unicode="&#x49e;" horiz-adv-x="1164" 
d="M0 1066v145h563v-145h-563zM176 0v1346h180v-647l553 647h206l-559 -635l606 -711h-221l-585 691v-691h-180z" />
    <glyph glyph-name="uni04A0" unicode="&#x4a0;" horiz-adv-x="1385" 
d="M18 1195v151h525v-151h-525zM397 0v1346h180v-647l553 647h206l-559 -635l605 -711h-220l-585 691v-691h-180z" />
    <glyph glyph-name="uni04A2" unicode="&#x4a2;" horiz-adv-x="1485" 
d="M1266 -288v288l-17 49l-11 102h197v-439h-169zM176 0v1346h180v-565h736v565h178v-1346h-178v625h-736v-625h-180z" />
    <glyph glyph-name="uni04A4" unicode="&#x4a4;" horiz-adv-x="1667" 
d="M1125 1195v151h524v-151h-524zM176 0v1346h180v-565h736v565h178v-1346h-178v625h-736v-625h-180z" />
    <glyph glyph-name="uni04A6" unicode="&#x4a6;" horiz-adv-x="2097" 
d="M176 0v1346h992v-1346h-178v1194h-634v-1194h-180zM1455 -282v154h72q133 0 182 68t49 222v310q0 152 -68.5 215t-202.5 63q-73 0 -159.5 -15.5t-160.5 -46.5v151q85 32 166 50t177 18q131 0 227 -42.5t148 -136.5t52 -250v-316q0 -233 -92 -338.5t-304 -105.5h-86z" />
    <glyph glyph-name="uni0524" unicode="&#x524;" horiz-adv-x="1465" 
d="M1246 -288v288l-17 49l-12 102h198v-439h-169zM176 0v1346h1074v-1346h-178v1194h-716v-1194h-180z" />
    <glyph glyph-name="uni04A8" unicode="&#x4a8;" horiz-adv-x="1486" 
d="M1438 -51q-197 0 -345 59.5t-246.5 163.5t-148 238.5t-49.5 282.5q0 183 48.5 295t132.5 163.5t190 51.5q113 0 196.5 -51.5t129.5 -163.5t46 -295q0 -202 -68 -363t-209.5 -254.5t-359.5 -93.5q-214 0 -358 88t-216.5 243t-72.5 359t72.5 360t215.5 244t354 88v-147
q-162 0 -262.5 -73.5t-146.5 -197t-46 -274.5q0 -150 46 -273.5t147.5 -196.5t266.5 -73q171 0 272.5 74t146 202t44.5 288q0 144 -28 224.5t-73.5 113t-96.5 32.5q-48 0 -94.5 -33.5t-76.5 -114t-30 -222.5q0 -120 34.5 -227.5t109 -191t192 -131t283.5 -47.5v-147z" />
    <glyph glyph-name="uni04AA" unicode="&#x4aa;" horiz-adv-x="1418" 
d="M661 -288v366h171v-366h-171zM750 -18q-209 0 -352 88t-216.5 243t-73.5 359t73.5 360t216.5 244t352 88q138 0 260.5 -48t204 -146.5t95.5 -248.5h-181q-12 101 -67.5 166.5t-137 97.5t-174.5 32q-162 0 -262.5 -74t-146.5 -197t-46 -274q0 -150 46 -273t146.5 -195.5
t262.5 -72.5q164 0 266 81t118 242h182q-16 -159 -93 -263.5t-199 -156.5t-274 -52z" />
    <glyph glyph-name="uni04AC" unicode="&#x4ac;" horiz-adv-x="980" 
d="M572 -288v288l-16 49l-12 106h198v-443h-170zM401 0v1195h-383v151h944v-151h-382v-1195h-179z" />
    <glyph glyph-name="uni04AE" unicode="&#x4ae;" horiz-adv-x="1105" 
d="M461 0v536l-461 810h198l355 -650l353 650h199l-462 -810v-536h-182z" />
    <glyph glyph-name="uni04B0" unicode="&#x4b0;" horiz-adv-x="1105" 
d="M177 371v145h755v-145h-755zM461 0v536l-461 810h198l355 -650l353 650h199l-462 -810v-536h-182z" />
    <glyph glyph-name="uni04B2" unicode="&#x4b2;" horiz-adv-x="1205" 
d="M1044 -288v288l-18 44l-46 107h232v-439h-168zM14 0l449 697l-418 649h204l316 -527l329 527h194l-419 -652l450 -694h-210l-344 558l-354 -558h-197z" />
    <glyph glyph-name="uni04B4" unicode="&#x4b4;" horiz-adv-x="1691" 
d="M18 1195v151h944v-151h-944zM401 0v1346h180v-1194h716v1194h179v-1346h-1075zM1471 -288v288l-17 44l-11 107h197v-439h-169z" />
    <glyph glyph-name="uni04B6" unicode="&#x4b6;" horiz-adv-x="1324" 
d="M1104 -288v288l-17 49l-11 102h197v-439h-169zM930 0v593q-82 -43 -171.5 -72.5t-193.5 -29.5q-128 0 -219 41.5t-139 128.5t-48 224v461h180v-452q0 -130 62 -190.5t186 -60.5q91 0 173 22.5t170 71.5v609h179v-1346h-179z" />
    <glyph glyph-name="uni04B8" unicode="&#x4b8;" horiz-adv-x="1286" 
d="M578 1076h110l-6 -823h-110zM930 0v593q-82 -43 -171.5 -72.5t-193.5 -29.5q-128 0 -219 41.5t-139 128.5t-48 224v461h180v-452q0 -130 62 -190.5t186 -60.5q91 0 173 22.5t170 71.5v609h179v-1346h-179z" />
    <glyph glyph-name="uni04BA" unicode="&#x4ba;" horiz-adv-x="1286" 
d="M356 1346v-593q83 43 172.5 72.5t192.5 29.5q129 0 220 -41.5t138.5 -128t47.5 -224.5v-461h-179v452q0 130 -62.5 190.5t-186.5 60.5q-91 0 -172.5 -22.5t-170.5 -71.5v-609h-179v1346h179z" />
    <glyph glyph-name="uni04BC" unicode="&#x4bc;" horiz-adv-x="1722" 
d="M992 -16q-200 0 -336.5 87t-207 242.5t-70.5 360.5q0 204 71 359.5t208.5 244t338.5 88.5q126 0 235 -36t193.5 -118t133.5 -217.5t56 -334.5l-197 124q-9 162 -69.5 256.5t-153.5 136t-198 41.5q-153 0 -247.5 -71t-138.5 -194.5t-44 -278.5t43.5 -277.5t138.5 -193.5
t248 -71q187 0 299.5 77t132.5 232h182q-20 -154 -104 -255.5t-216.5 -151.5t-297.5 -50zM397 655q-212 0 -304.5 98t-92.5 312h180q0 -136 48.5 -195.5t182.5 -59.5h71v-155h-85zM485 660v145h1047l82 -145h-1129z" />
    <glyph glyph-name="uni04BE" unicode="&#x4be;" horiz-adv-x="1722" 
d="M917 -288v366h171v-366h-171zM992 -16q-200 0 -336.5 87t-207 242.5t-70.5 360.5q0 204 71 359.5t208.5 244t338.5 88.5q126 0 235 -36t193.5 -118t133.5 -217.5t56 -334.5l-197 124q-9 162 -69.5 256.5t-153.5 136t-198 41.5q-153 0 -247.5 -71t-138.5 -194.5
t-44 -278.5t43.5 -277.5t138.5 -193.5t248 -71q187 0 299.5 77t132.5 232h182q-20 -154 -104 -255.5t-216.5 -151.5t-297.5 -50zM397 655q-212 0 -304.5 98t-92.5 312h180q0 -136 48.5 -195.5t182.5 -59.5h71v-155h-85zM485 660v145h1047l82 -145h-1129z" />
    <glyph glyph-name="uni04C0" unicode="&#x4c0;" horiz-adv-x="533" 
d="M176 0v1346h180v-1346h-180z" />
    <glyph glyph-name="uni04C1" unicode="&#x4c1;" horiz-adv-x="1771" 
d="M799 0v1346h172v-647l554 647h197l-559 -640l606 -706h-207l-591 691v-691h-172zM2 0l606 706l-559 640h198l552 -647v-8l-590 -691h-207zM886 1481q-151 0 -231.5 66.5t-98.5 185.5h147q10 -76 65 -110.5t120 -34.5q66 0 121.5 35.5t65.5 109.5h144q-16 -117 -99 -184.5
t-234 -67.5z" />
    <glyph glyph-name="uni04C3" unicode="&#x4c3;" horiz-adv-x="1254" 
d="M176 0v1346h180v-633l553 633h206l-559 -615l-200 -43v-688h-180zM653 -282v154h71q134 0 182.5 72.5t48.5 235.5v173q0 149 -62 208t-181 59q-80 0 -178.5 -13.5t-179.5 -41.5v133q95 29 185 51.5t196 22.5q118 0 208.5 -41t141 -131t50.5 -236v-193q0 -239 -92.5 -346
t-304.5 -107h-85z" />
    <glyph glyph-name="uni04C5" unicode="&#x4c5;" horiz-adv-x="1380" 
d="M988 0v1189h-525l57 157h647v-1346h-179zM17 -13v153h20q66 0 111.5 30.5t79 110t62.5 222.5t61 368l70 475h172l-70 -508q-33 -243 -67 -407t-83 -261.5t-125.5 -140t-196.5 -42.5h-34zM1011 -288l126 288v151h192l-122 -439h-196z" />
    <glyph glyph-name="uni04C7" unicode="&#x4c7;" horiz-adv-x="1448" 
d="M911 -327v153h21q91 0 125.5 43t34.5 148l178 -7q1 -119 -32.5 -193.5t-105 -109t-187.5 -34.5h-34zM176 0v1346h180v-565h736v565h178v-1336l-178 7v608h-736v-625h-180z" />
    <glyph glyph-name="uni04C9" unicode="&#x4c9;" horiz-adv-x="1483" 
d="M1114 -288l126 288v151h193l-123 -439h-196zM176 0v1346h180v-565h736v565h178v-1346h-178v625h-736v-625h-180z" />
    <glyph glyph-name="uni04CB" unicode="&#x4cb;" horiz-adv-x="1286" 
d="M935 -288h-169v439h197l-10 -107l-18 -44v-288zM930 0v593q-82 -43 -171.5 -72.5t-193.5 -29.5q-128 0 -219 41.5t-139 128.5t-48 224v461h180v-452q0 -130 62 -190.5t186 -60.5q91 0 173 22.5t170 71.5v609h179v-1346h-179z" />
    <glyph glyph-name="uni04CD" unicode="&#x4cd;" horiz-adv-x="1649" 
d="M1280 -288l126 288l-1 151h194l-124 -439h-195zM176 0v1346h197l479 -793h-73l470 793h192v-1346h-177v1196h62l-457 -773h-118l-464 773h62v-1196h-173z" />
    <glyph glyph-name="uni04D0" unicode="&#x4d0;" horiz-adv-x="1207" 
d="M8 0l504 1346h190l497 -1346h-186l-128 377h-558l-134 -377h-185zM376 528h458l-228 639zM600 1481q-151 0 -231.5 66.5t-98.5 185.5h147q10 -76 65 -110.5t120 -34.5q66 0 121.5 35.5t65.5 109.5h144q-16 -117 -99 -184.5t-234 -67.5z" />
    <glyph glyph-name="uni04D2" unicode="&#x4d2;" horiz-adv-x="1207" 
d="M8 0l504 1346h190l497 -1346h-186l-128 377h-558l-134 -377h-185zM376 528h458l-228 639zM779 1510q-40 0 -66.5 25t-26.5 65t26.5 65.5t66.5 25.5t67 -25.5t27 -65.5t-27 -65t-67 -25zM427 1510q-39 0 -66.5 25t-27.5 65t27.5 65.5t66.5 25.5q40 0 67 -25.5t27 -65.5
t-27 -65t-67 -25z" />
    <glyph glyph-name="uni04D4" unicode="&#x4d4;" horiz-adv-x="1911" 
d="M-33 0l870 1346h146l3 -175h-81l-447 -706v-11l-285 -454h-206zM379 377v151h659v-151h-659zM947 0v1346h859v-150h-679v-429h626v-148h-626v-469h679v-150h-859z" />
    <glyph glyph-name="uni04D6" unicode="&#x4d6;" horiz-adv-x="1139" 
d="M176 0v1346h859v-150h-679v-429h625v-148h-625v-469h679v-150h-859zM602 1481q-151 0 -231.5 66.5t-98.5 185.5h147q10 -76 65 -110.5t120 -34.5q66 0 121.5 35.5t65.5 109.5h144q-16 -117 -99 -184.5t-234 -67.5z" />
    </font>
</defs>
</svg>
